<?xml version="1.0" standalone="no"?>
<!DOCTYPE svg PUBLIC "-//W3C//DTD SVG 1.1//EN" "http://www.w3.org/Graphics/SVG/1.1/DTD/svg11.dtd" >
<svg xmlns="http://www.w3.org/2000/svg">
<metadata>Generated by IcoMoon</metadata>
<defs>
<font id="icomoon" horiz-adv-x="1024">
<font-face units-per-em="1024" ascent="960" descent="-64" />
<missing-glyph horiz-adv-x="1024" />
<glyph unicode="&#x20;" horiz-adv-x="512" d="" />
<glyph unicode="&#xe900;" glyph-name="abstract-1" d="M490.048-11.434l-163.346 245.495c-9.097 13.649-13.952 29.683-13.952 46.089s4.854 32.439 13.952 46.089l158.090 238.81c2.125 3.359 3.251 7.251 3.251 11.224s-1.126 7.865-3.251 11.224l-116.059 169.554c-10.036 15.229-13.659 33.804-10.082 51.689s14.065 33.637 29.186 43.835l47.76 32c15.232 10.036 33.805 13.659 51.691 10.082s33.634-14.065 43.836-29.186l166.208-246.928c9.097-13.65 13.952-29.687 13.952-46.090s-4.855-32.44-13.952-46.090l-158.089-238.809c-2.125-3.358-3.251-7.249-3.251-11.226 0-3.972 1.126-7.863 3.251-11.221l116.058-167.168c10.039-15.228 13.662-33.801 10.082-51.686-3.575-17.886-14.063-33.638-29.184-43.836l-47.761-32c-7.586-5.47-16.196-9.344-25.314-11.396-9.122-2.048-18.564-2.231-27.759-0.538-9.19 1.698-17.946 5.235-25.737 10.406-7.787 5.171-14.447 11.861-19.58 19.678z" />
<glyph unicode="&#xe901;" glyph-name="abstract-2" d="M780.8 695.467v-268.8c0-71.292-28.318-139.661-78.729-190.071s-118.78-78.729-190.071-78.729c-71.292 0-139.66 28.318-190.070 78.729s-78.73 118.78-78.73 190.071v268.8h537.6zM915.2 874.667h-806.4c-11.882 0-23.277-4.72-31.678-13.122s-13.122-19.796-13.122-31.678v-403.2c0-118.818 47.2-232.768 131.216-316.783 41.6-41.6 90.988-74.603 145.341-97.114 54.354-22.515 112.609-34.103 171.442-34.103 118.818 0 232.768 47.198 316.783 131.217 84.019 84.015 131.217 197.965 131.217 316.783v403.2c0 11.882-4.719 23.277-13.12 31.678-8.405 8.402-19.797 13.122-31.68 13.122z" />
<glyph unicode="&#xe902;" glyph-name="abstract-3" d="M977.809 460.728l-431.748 431.749c-4.459 4.496-9.766 8.065-15.612 10.501s-12.117 3.689-18.449 3.689c-6.332 0-12.604-1.254-18.449-3.689s-11.153-6.004-15.612-10.501l-431.749-431.749c-4.496-4.459-8.065-9.766-10.501-15.612s-3.689-12.117-3.689-18.449c0-6.332 1.254-12.604 3.689-18.449s6.004-11.153 10.501-15.612l431.749-431.748c4.459-4.497 9.766-8.064 15.612-10.5s12.117-3.691 18.449-3.691c6.332 0 12.604 1.254 18.449 3.691s11.153 6.003 15.612 10.5l431.748 431.748c4.497 4.459 8.064 9.766 10.5 15.612s3.691 12.117 3.691 18.449c0 6.332-1.254 12.604-3.691 18.449s-6.003 11.153-10.5 15.612zM512 655.015l132.403-132.403h-264.806l132.403 132.403zM512 198.319l-132.403 132.403h264.806l-132.403-132.403z" />
<glyph unicode="&#xe903;" glyph-name="abstract-4" d="M512.013 655.219l228.416-228.411-228.416-228.416-228.413 228.416 228.413 228.411zM512.013 906.666c-6.315 0.037-12.574-1.174-18.419-3.562-5.85-2.388-11.166-5.907-15.65-10.354l-431.874-431.873c-4.498-4.463-8.068-9.771-10.504-15.616-2.436-5.85-3.69-12.122-3.69-18.453 0-6.336 1.254-12.608 3.69-18.458 2.436-5.845 6.006-11.153 10.504-15.616l431.874-431.872c4.463-4.497 9.766-8.068 15.616-10.505s12.122-3.691 18.453-3.691c6.336 0 12.608 1.254 18.453 3.691 5.85 2.436 11.157 6.007 15.616 10.505l431.876 431.872c4.497 4.463 8.068 9.771 10.505 15.616 2.436 5.85 3.691 12.122 3.691 18.458 0 6.332-1.254 12.604-3.691 18.453-2.436 5.845-6.007 11.153-10.505 15.616l-431.876 431.873c-4.48 4.447-9.801 7.966-15.646 10.354s-12.109 3.598-18.423 3.562z" />
<glyph unicode="&#xe904;" glyph-name="abstract-5" d="M512 896c-92.825 0-183.566-27.526-260.748-79.097s-137.337-124.871-172.86-210.63c-35.523-85.76-44.817-180.127-26.708-271.169s62.809-174.669 128.446-240.307c65.638-65.634 149.265-110.336 240.306-128.444 91.042-18.112 185.408-8.815 271.168 26.705 85.76 35.524 159.061 95.68 210.633 172.86 51.571 77.184 79.095 167.923 79.095 260.749 0 61.632-12.139 122.664-35.725 179.606s-58.159 108.681-101.739 152.263c-43.584 43.581-95.322 78.152-152.265 101.739s-117.973 35.726-179.605 35.726zM699.733 285.867c0-12.446-4.945-24.384-13.747-33.186s-20.74-13.747-33.186-13.747h-281.6c-12.448 0-24.385 4.945-33.187 13.747s-13.747 20.74-13.747 33.186v281.6c0 12.448 4.945 24.385 13.747 33.187s20.739 13.746 33.187 13.746h281.6c12.446 0 24.384-4.945 33.186-13.746s13.747-20.739 13.747-33.187v-281.6z" />
<glyph unicode="&#xe905;" glyph-name="abstract-6" d="M855.467 545.17h-9.323c5.986 15.939 9.143 32.832 9.323 49.892 0 39.697-15.509 77.768-43.115 105.838s-65.045 43.839-104.085 43.839c-29.41-0.081-58.121-9.117-82.432-25.944-27.068 47.237-68.646 84.125-118.345 104.989s-104.759 24.552-156.717 10.493c-51.958-14.059-97.936-45.084-130.862-88.304s-50.978-96.242-51.378-150.912c0.156-16.747 1.798-33.446 4.907-49.892h-4.907c-39.040 0-76.481-15.77-104.086-43.841s-43.114-66.138-43.114-105.835c0-39.697 15.509-77.769 43.114-105.839s65.046-43.84 104.086-43.84h196.267l217.856-221.521c6.217-6.451 14.187-10.871 22.886-12.693s17.737-0.964 25.954 2.462c8.218 3.43 15.245 9.271 20.181 16.785 4.932 7.509 7.552 16.346 7.522 25.378v189.589h196.267c39.040 0 76.48 15.77 104.085 43.84s43.115 66.142 43.115 105.839c0 39.697-15.509 77.764-43.115 105.835s-65.045 43.841-104.085 43.841z" />
<glyph unicode="&#xe906;" glyph-name="abstract-7" d="M509.585 691.375l229.5-132.348v-264.695l-229.5-132.348-229.495 132.348v264.695l229.495 132.348zM509.585 895.999c-13.82 0.095-27.422-3.468-39.42-10.325l-336.034-195.706c-11.984-6.864-21.942-16.773-28.865-28.723s-10.565-25.518-10.558-39.328v-390.474c-0.007-13.811 3.635-27.379 10.558-39.33 6.923-11.947 16.881-21.858 28.865-28.719l338.381-195.708c12.032-6.784 25.609-10.351 39.42-10.351 13.815 0 27.392 3.567 39.424 10.351l338.381 195.708c11.985 6.861 21.943 16.772 28.864 28.719 6.925 11.951 10.564 25.519 10.56 39.33v390.474c0.004 13.811-3.635 27.378-10.56 39.328-6.921 11.95-16.879 21.859-28.864 28.723l-340.727 195.706c-11.998 6.858-25.6 10.42-39.424 10.325z" />
<glyph unicode="&#xe907;" glyph-name="abstract-8" d="M981.333 426.667c0-92.826-27.524-183.565-79.095-260.749-51.571-77.18-124.873-137.335-210.633-172.86-85.76-35.52-180.126-44.817-271.168-26.705-91.042 18.108-174.669 62.81-240.306 128.444-65.638 65.638-110.337 149.265-128.446 240.307s-8.815 185.409 26.708 271.169c35.523 85.76 95.678 159.059 172.86 210.63s167.922 79.097 260.748 79.097c61.632 0 122.662-12.14 179.605-35.726s108.681-58.157 152.265-101.739c43.58-43.582 78.153-95.321 101.739-152.263s35.725-117.974 35.725-179.606zM512 708.267c-55.697 0-110.14-16.515-156.448-47.458s-82.402-74.922-103.716-126.378c-21.314-51.456-26.89-108.075-16.025-162.701s37.685-104.802 77.068-144.183c39.382-39.381 89.559-66.202 144.183-77.069 54.626-10.863 111.245-5.286 162.701 16.026s95.437 57.408 126.379 103.714c30.942 46.31 47.458 100.753 47.458 156.45 0 74.684-29.67 146.311-82.479 199.121s-124.437 82.479-199.121 82.479z" />
<glyph unicode="&#xe908;" glyph-name="abstract-9" d="M749.039 663.704v-474.076h-474.076v474.076h474.076zM891.26 853.334h-758.519c-12.573 0-24.631-4.995-33.522-13.885s-13.885-20.949-13.885-33.522v-758.519c0-12.574 4.995-24.631 13.885-33.523 8.89-8.887 20.949-13.884 33.522-13.884h758.519c12.574 0 24.631 4.996 33.523 13.884 8.887 8.892 13.884 20.949 13.884 33.523v758.519c0 12.573-4.996 24.631-13.884 33.522-8.892 8.891-20.949 13.885-33.523 13.885z" />
<glyph unicode="&#xe909;" glyph-name="abstract-10" d="M924.8 518.4h-321.067v321.067c0 12.165-4.834 23.831-13.436 32.433s-20.267 13.434-32.431 13.434h-91.733c-12.164 0-23.829-4.832-32.431-13.434-8.603-8.602-13.436-20.268-13.436-32.433v-321.067h-321.067c-12.165 0-23.831-4.832-32.433-13.436-8.602-8.602-13.434-20.267-13.434-32.431v-91.733c0-12.164 4.832-23.829 13.434-32.431s20.268-13.436 32.433-13.436h321.067v-321.067c0-12.164 4.832-23.829 13.436-32.431 8.602-8.602 20.267-13.436 32.431-13.436h91.733c12.164 0 23.829 4.834 32.431 13.436s13.436 20.267 13.436 32.431v321.067h321.067c12.164 0 23.829 4.834 32.431 13.436s13.436 20.267 13.436 32.431v91.733c0 12.164-4.834 23.829-13.436 32.431-8.602 8.603-20.267 13.436-32.431 13.436z" />
<glyph unicode="&#xe90a;" glyph-name="abstract-11" d="M772.39 818.399l-260.39-260.391-260.391 260.391c-8.709 8.709-20.52 13.601-32.835 13.601s-24.127-4.892-32.835-13.601l-65.67-65.67c-8.709-8.709-13.601-20.52-13.601-32.835s4.892-24.127 13.601-32.835l260.391-260.391-260.391-260.39c-8.709-8.708-13.601-20.523-13.601-32.836s4.892-24.128 13.601-32.836l65.67-65.668c8.709-8.708 20.52-13.602 32.835-13.602s24.127 4.894 32.835 13.602l260.391 260.39 260.39-260.39c8.708-8.708 20.523-13.602 32.836-13.602s24.128 4.894 32.836 13.602l65.668 65.668c8.708 8.708 13.602 20.523 13.602 32.836s-4.894 24.128-13.602 32.836l-260.39 260.39 260.39 260.391c8.708 8.709 13.602 20.52 13.602 32.835s-4.894 24.127-13.602 32.835l-65.668 65.67c-8.708 8.708-20.523 13.601-32.836 13.601s-24.128-4.892-32.836-13.601z" />
<glyph unicode="&#xe90b;" glyph-name="abstract-12" d="M558.921-42.666h-93.867c-12.446 0-24.384 4.945-33.186 13.747s-13.747 20.74-13.747 33.186v140.8c0 12.446 4.945 24.384 13.747 33.186s20.74 13.747 33.186 13.747h93.867c12.446 0 24.384-4.945 33.186-13.747s13.747-20.74 13.747-33.186v-140.8c0-12.446-4.945-24.384-13.747-33.186s-20.74-13.747-33.186-13.747zM802.974 486.272l121.557 70.4c10.735 6.191 18.586 16.377 21.841 28.335 3.251 11.958 1.643 24.717-4.476 35.494l-46.933 81.664c-3.106 5.339-7.232 10.012-12.147 13.752s-10.522 6.473-16.495 8.043c-5.973 1.57-12.198 1.945-18.317 1.104s-12.011-2.881-17.34-6.004l-121.557-70.4c-10.735-6.191-18.586-16.377-21.837-28.335-3.255-11.958-1.647-24.717 4.471-35.494l46.933-81.664c3.106-5.338 7.236-10.014 12.147-13.751 4.915-3.742 10.522-6.473 16.495-8.043s12.198-1.946 18.317-1.105c6.118 0.841 12.011 2.88 17.34 6.003zM314.868 648.662l-121.557 70.4c-5.329 3.123-11.221 5.163-17.34 6.004s-12.343 0.465-18.316-1.104c-5.973-1.57-11.578-4.303-16.493-8.043s-9.044-8.413-12.149-13.752l-46.933-81.664c-6.119-10.777-7.727-23.536-4.474-35.494s11.104-22.144 21.839-28.335l121.557-70.4c5.329-3.123 11.221-5.163 17.34-6.003s12.343-0.465 18.316 1.105c5.974 1.57 11.578 4.301 16.493 8.043 4.915 3.738 9.044 8.414 12.149 13.751l46.933 81.664c6.119 10.777 7.727 23.536 4.474 35.494s-11.104 22.144-21.839 28.335zM558.921 661.334h-93.867c-12.446 0-24.384 4.945-33.186 13.746s-13.747 20.739-13.747 33.187v140.8c0 12.448 4.945 24.385 13.747 33.187s20.74 13.746 33.186 13.746h93.867c12.446 0 24.384-4.945 33.186-13.746s13.747-20.739 13.747-33.187v-140.8c0-12.448-4.945-24.385-13.747-33.187s-20.74-13.746-33.186-13.746zM193.31 134.272l121.557 70.4c10.735 6.191 18.586 16.375 21.839 28.335s1.645 24.717-4.474 35.494l-46.933 81.664c-3.105 5.338-7.234 10.014-12.149 13.751-4.915 3.742-10.519 6.473-16.493 8.043s-12.198 1.946-18.316 1.105c-6.119-0.841-12.012-2.88-17.34-6.003l-121.557-70.4c-10.735-6.191-18.586-16.375-21.839-28.335s-1.645-24.717 4.474-35.494l46.933-81.664c3.105-5.338 7.234-10.014 12.149-13.751 4.915-3.742 10.52-6.473 16.493-8.043s12.198-1.946 18.316-1.105c6.119 0.841 12.012 2.88 17.34 6.003zM924.531 296.662l-121.557 70.4c-5.329 3.123-11.221 5.163-17.34 6.003s-12.343 0.465-18.317-1.105c-5.973-1.57-11.58-4.301-16.495-8.043-4.911-3.738-9.041-8.414-12.147-13.751l-46.933-81.664c-6.118-10.778-7.727-23.535-4.471-35.494 3.251-11.959 11.102-22.144 21.837-28.335l121.557-70.4c5.329-3.123 11.221-5.163 17.34-6.003s12.343-0.465 18.317 1.105c5.973 1.57 11.58 4.301 16.495 8.043 4.915 3.738 9.041 8.414 12.147 13.751l46.933 81.664c6.118 10.778 7.727 23.535 4.476 35.494-3.255 11.959-11.106 22.144-21.841 28.335z" />
<glyph unicode="&#xe90c;" glyph-name="abstract-13" d="M509.589 745.818l276.429-159.569v-319.138l-276.429-159.569-276.431 159.569v319.138l276.431 159.569zM509.589 896c-13.794-0.134-27.337-3.682-39.424-10.325l-336.034-195.707c-11.984-6.864-21.942-16.773-28.865-28.723s-10.565-25.518-10.558-39.328v-390.476c-0.007-13.811 3.635-27.379 10.558-39.326 6.923-11.951 16.881-21.862 28.865-28.723l338.381-195.708c12.032-6.784 25.609-10.351 39.424-10.351 13.811 0 27.392 3.567 39.42 10.351l338.381 195.708c11.985 6.861 21.943 16.772 28.864 28.723 6.925 11.947 10.569 25.515 10.56 39.326v390.476c0.009 13.811-3.635 27.378-10.56 39.328-6.921 11.951-16.879 21.859-28.864 28.723l-340.727 195.707c-12.087 6.643-25.63 10.191-39.42 10.325zM509.589 505.054c-15.505 0-30.656-4.595-43.546-13.205-12.89-8.614-22.933-20.855-28.868-35.174-5.931-14.323-7.484-30.080-4.459-45.286 3.025-15.202 10.487-29.167 21.449-40.128s24.93-18.428 40.132-21.453c15.202-3.021 30.963-1.472 45.282 4.463 14.323 5.931 26.564 15.979 35.174 28.864 8.614 12.89 13.21 28.045 13.21 43.546 0 10.291-2.027 20.484-5.965 29.995-3.938 9.506-9.711 18.146-16.99 25.425s-15.919 13.052-25.429 16.99c-9.506 3.938-19.699 5.965-29.99 5.965z" />
<glyph unicode="&#xe90d;" glyph-name="abstract-14" d="M896 640h-768c-11.316 0-22.168 4.495-30.17 12.497s-12.497 18.854-12.497 30.17v85.333c0 11.316 4.495 22.168 12.497 30.17s18.854 12.497 30.17 12.497h768c11.315 0 22.17-4.495 30.17-12.497s12.497-18.854 12.497-30.17v-85.333c0-11.316-4.497-22.168-12.497-30.17s-18.854-12.497-30.17-12.497zM938.667 384v85.333c0 11.315-4.497 22.17-12.497 30.17s-18.854 12.497-30.17 12.497h-768c-11.316 0-22.168-4.497-30.17-12.497s-12.497-18.854-12.497-30.17v-85.333c0-11.315 4.495-22.17 12.497-30.17s18.854-12.497 30.17-12.497h768c11.315 0 22.17 4.497 30.17 12.497s12.497 18.854 12.497 30.17zM896 42.667h-768c-11.316 0-22.168 4.497-30.17 12.497s-12.497 18.854-12.497 30.17v85.333c0 11.315 4.495 22.17 12.497 30.17s18.854 12.497 30.17 12.497h768c11.315 0 22.17-4.497 30.17-12.497s12.497-18.854 12.497-30.17v-85.333c0-11.315-4.497-22.17-12.497-30.17s-18.854-12.497-30.17-12.497z" />
<glyph unicode="&#xe90e;" glyph-name="abstract-15" d="M516.625-9.958l-77.948 34.79c-10.099 4.881-17.956 13.431-21.967 23.91-4.010 10.475-3.872 22.084 0.387 32.461l17.177 39.194c20.019 42.569 30.404 89.037 30.404 136.077 0 47.044-10.385 93.508-30.404 136.081-29.813 64.307-45.256 134.337-45.256 205.218s15.443 140.911 45.256 205.219l17.173 38.754c4.804 10.178 13.321 18.131 23.804 22.225s22.135 4.021 32.563-0.207l77.948-34.79c10.099-4.881 17.958-13.431 21.969-23.906 4.006-10.476 3.87-22.086-0.388-32.463l-17.173-37.432c-20.023-42.57-30.404-89.035-30.404-136.079s10.381-93.507 30.404-136.080c29.811-64.307 45.252-134.336 45.252-205.218s-15.441-140.911-45.252-205.218l-17.178-38.754c-4.48-10.496-12.864-18.842-23.381-23.275-10.513-4.437-22.34-4.617-32.986-0.508zM876.416 12.062l17.178 38.754c29.696 64.341 45.073 134.357 45.073 205.218s-15.377 140.881-45.073 205.218c-20.023 42.573-30.404 89.036-30.404 136.080s10.381 93.508 30.404 136.079l17.613 39.194c4.258 10.377 4.399 21.987 0.388 32.463s-11.866 19.025-21.965 23.906l-77.948 34.79c-10.432 4.227-22.084 4.302-32.567 0.207s-18.999-12.048-23.804-22.225l-17.613-38.754c-29.811-64.307-45.257-134.337-45.257-205.219s15.445-140.911 45.257-205.218c20.019-42.573 30.404-89.037 30.404-136.081 0-47.040-10.385-93.508-30.404-136.077l-17.178-39.194c-4.258-10.377-4.395-21.986-0.384-32.461 4.011-10.479 11.866-19.029 21.965-23.91l77.948-34.79c10.428-4.224 22.080-4.301 32.563-0.205s19.004 12.049 23.804 22.225zM269.129 12.062l17.615 38.754c29.811 64.307 45.254 134.336 45.254 205.218s-15.443 140.911-45.254 205.218c-20.293 42.807-30.821 89.588-30.821 136.961s10.528 94.153 30.821 136.96l17.175 39.194c4.258 10.377 4.396 21.987 0.386 32.463s-11.866 19.026-21.965 23.907l-78.388 33.029c-10.43 4.227-22.083 4.302-32.566 0.207s-19-12.048-23.803-22.225l-17.175-38.754c-29.696-64.339-45.074-134.357-45.074-205.219s15.379-140.881 45.074-205.218c20.023-42.573 30.405-89.037 30.405-136.081 0-47.040-10.382-93.508-30.405-136.077l-17.615-39.194c-4.258-10.377-4.396-21.986-0.386-32.461 4.010-10.479 11.866-19.029 21.965-23.91l77.948-34.79c10.481-4.356 22.242-4.501 32.827-0.397 10.585 4.1 19.177 12.134 23.983 22.417z" />
<glyph unicode="&#xe90f;" glyph-name="abstract-16" d="M75.35 422.042l34.79 77.948c4.881 10.099 13.431 17.956 23.906 21.967s22.086 3.872 32.463-0.387l39.194-17.177c42.57-20.019 89.035-30.404 136.079-30.404s93.507 10.385 136.080 30.404c64.307 29.813 134.336 45.256 205.218 45.256 70.878 0 140.911-15.443 205.218-45.256l38.754-17.173c10.176-4.804 18.129-13.321 22.225-23.804s4.019-22.135-0.205-32.563l-34.79-77.948c-4.881-10.099-13.431-17.958-23.91-21.969-10.475-4.006-22.084-3.87-32.461 0.388l-37.431 17.173c-42.573 20.023-89.037 30.404-136.081 30.404s-93.508-10.381-136.077-30.404c-64.307-29.811-134.338-45.252-205.219-45.252s-140.911 15.441-205.219 45.252l-38.754 17.178c-10.496 4.48-18.841 12.864-23.277 23.381-4.436 10.513-4.617 22.34-0.504 32.986zM97.369 62.251l38.754-17.178c64.34-29.696 134.357-45.073 205.219-45.073s140.881 15.377 205.218 45.073c42.569 20.023 89.037 30.404 136.081 30.404 47.040 0 93.504-10.381 136.077-30.404l39.194-17.613c10.377-4.258 21.986-4.399 32.461-0.388 10.479 4.011 19.029 11.866 23.91 21.965l34.79 77.948c4.224 10.432 4.301 22.084 0.205 32.567s-12.049 18.999-22.225 23.804l-38.754 17.613c-64.307 29.811-134.34 45.257-205.218 45.257-70.882 0-140.911-15.445-205.218-45.257-42.573-20.019-89.036-30.404-136.080-30.404s-93.508 10.385-136.079 30.404l-39.194 17.178c-10.377 4.258-21.988 4.395-32.463 0.384s-19.025-11.866-23.906-21.965l-34.79-78.387c-4.097-10.377-4.103-21.922-0.016-32.307 4.087-10.381 11.962-18.825 22.035-23.62zM97.369 669.538l38.754-17.615c64.308-29.811 134.338-45.254 205.219-45.254s140.911 15.443 205.218 45.254c42.569 20.023 89.037 30.405 136.081 30.405 47.040 0 93.504-10.382 136.077-30.405l39.194-17.175c10.377-4.258 21.986-4.396 32.461-0.386 10.479 4.010 19.029 11.866 23.91 21.965l34.79 78.388c4.224 10.43 4.301 22.083 0.205 32.566s-12.049 19-22.225 23.803l-38.754 17.175c-64.341 29.696-134.357 45.074-205.218 45.074s-140.881-15.379-205.218-45.074c-42.773-20.362-89.539-30.964-136.911-31.041s-94.17 10.376-137.009 30.601l-39.194 17.615c-10.377 4.258-21.987 4.396-32.463 0.386s-19.025-11.866-23.906-21.965l-33.029-77.948c-4.228-10.43-4.302-22.083-0.207-32.566s12.048-19 22.225-23.803z" />
<glyph unicode="&#xe910;" glyph-name="abstract-17" d="M453.312 485.355c123.046 124.222 287.394 198.983 461.888 210.112 12.279 0.911 23.748 6.469 32.073 15.542 8.32 9.073 12.873 20.978 12.727 33.29v85.568c0 11.882-4.723 23.277-13.124 31.678s-19.797 13.122-31.676 13.122c-222.246-10.86-432.499-104.026-589.836-261.364-157.338-157.337-250.504-367.59-261.364-589.836 0-11.878 4.72-23.275 13.122-31.676s19.796-13.124 31.678-13.124h86.912c12.080 0.192 23.651 4.894 32.439 13.184s14.156 19.571 15.049 31.616c11.13 174.494 85.891 338.842 210.112 461.888zM643.264 295.403c72.811 73.425 169.011 119.066 271.936 129.024 11.934 0.981 23.095 6.319 31.356 14.993 8.26 8.67 13.043 20.079 13.444 32.047v89.6c0.026 6.239-1.254 12.413-3.755 18.129-2.496 5.716-6.165 10.847-10.761 15.064s-10.022 7.428-15.932 9.427c-5.909 1.999-12.173 2.741-18.385 2.179-149.658-11.261-290.313-75.813-396.433-181.935-106.123-106.121-170.674-246.775-181.935-396.433-0.561-6.212 0.181-12.471 2.179-18.385 1.999-5.909 5.209-11.337 9.427-15.932s9.348-8.265 15.064-10.761c5.716-2.5 11.891-3.78 18.129-3.755h89.6c12.279-0.038 24.128 4.548 33.178 12.851s14.639 19.712 15.654 31.949c9.472 102.69 54.464 198.861 127.232 271.936zM706.432 232.235c54.903 54.831 126.118 90.359 202.944 101.248 6.353 0.836 12.809 0.294 18.935-1.579 6.127-1.877 11.78-5.043 16.58-9.289 4.796-4.25 8.627-9.476 11.234-15.326 2.607-5.854 3.925-12.198 3.874-18.607v-86.016c-0.209-11.52-4.373-22.618-11.797-31.424-7.424-8.815-17.655-14.801-28.971-16.96-32.755-7.543-62.724-24.145-86.49-47.91s-40.367-53.734-47.91-86.49c-2.082-11.473-8.098-21.862-17.007-29.385-8.913-7.522-20.164-11.703-31.825-11.831h-86.464c-6.409-0.051-12.753 1.267-18.607 3.874-5.85 2.607-11.076 6.438-15.326 11.234-4.245 4.8-7.411 10.453-9.289 16.58-1.873 6.127-2.415 12.582-1.579 18.935 11.012 76.881 46.703 148.105 101.696 202.944z" />
<glyph unicode="&#xe911;" glyph-name="abstract-18" d="M844.463-42.666h-665.302c-8.392 0.631-16.467 3.405-23.415 8.051-6.948 4.642-12.526 10.991-16.172 18.406-3.647 7.42-5.235 15.642-4.605 23.851 0.63 8.205 3.455 16.107 8.193 22.908l292.333 344.917c8.956 11.482 20.506 20.787 33.741 27.191 13.239 6.404 27.806 9.737 42.577 9.737s29.338-3.332 42.577-9.737c13.235-6.404 24.785-15.71 33.745-27.191l292.809-345.856c4.514-6.818 7.138-14.669 7.62-22.78 0.478-8.107-1.203-16.201-4.877-23.484-3.678-7.283-9.225-13.513-16.098-18.069-6.878-4.561-14.844-7.296-23.125-7.945zM844.463 896h-665.302c-8.392-0.63-16.467-3.406-23.415-8.050s-12.526-10.993-16.172-18.41c-3.647-7.417-5.235-15.641-4.605-23.848s3.455-16.107 8.193-22.909l292.333-344.917c8.956-11.482 20.506-20.787 33.741-27.191 13.239-6.404 27.806-9.737 42.577-9.737s29.338 3.332 42.577 9.737c13.235 6.404 24.785 15.71 33.745 27.191l292.809 345.856c4.514 6.82 7.138 14.668 7.62 22.778 0.478 8.109-1.203 16.202-4.877 23.486-3.678 7.284-9.225 13.51-16.098 18.070-6.878 4.56-14.844 7.297-23.125 7.944z" />
<glyph unicode="&#xe912;" glyph-name="abstract-19" d="M997.069 57.865c3.639-6.199 5.568-13.252 5.598-20.437 0.030-7.189-1.847-14.255-5.431-20.484-3.588-6.225-8.759-11.392-14.993-14.976-6.229-3.58-13.299-5.449-20.484-5.414h-449.758l259.947 450.739 225.122-389.427zM252.054 447.292l-225.123-389.427c-3.637-6.199-5.568-13.252-5.597-20.437-0.029-7.189 1.846-14.255 5.433-20.484 3.587-6.225 8.759-11.392 14.991-14.976 6.231-3.58 13.299-5.449 20.487-5.414h449.756l-259.946 450.739zM546.334 836.721l224.631-389.429h-518.912l224.631 389.429c3.567 6.216 8.708 11.381 14.912 14.973 6.199 3.592 13.239 5.484 20.403 5.484s14.204-1.891 20.403-5.484c6.204-3.592 11.345-8.757 14.912-14.973h-0.981z" />
<glyph unicode="&#xe913;" glyph-name="abstract-20" d="M746.466 21.632c-71.074-41.958-152.068-64.158-234.598-64.299-124.441 0-243.784 49.446-331.776 137.463s-137.425 207.394-137.425 331.87c0 124.475 49.433 243.852 137.425 331.869s207.335 137.465 331.776 137.465c82.53-0.14 163.524-22.338 234.598-64.299-38.063 11.404-77.568 17.252-117.299 17.365-111.996 0-219.405-44.503-298.598-123.718s-123.683-186.655-123.683-298.682c0-112.026 44.49-219.465 123.683-298.684 79.193-79.215 186.602-123.716 298.598-123.716 39.731 0.111 79.236 5.961 117.299 17.365zM629.167 778.667c-83.75-0.091-164.719-30.057-228.363-84.512-63.642-54.455-105.781-129.829-118.846-212.576h2.346c13.115 54.605 45.372 102.695 90.913 135.537s101.348 48.259 157.284 43.45c55.936-4.809 108.292-29.524 147.567-69.656 39.27-40.133 62.852-93.024 66.458-149.066 3.61-56.043-12.992-111.522-46.793-156.361-33.801-44.843-82.556-76.070-137.412-88.017-54.861-11.947-112.183-3.819-161.558 22.908-49.377 26.726-87.535 70.281-107.544 122.752h-5.63c15.67-64.154 49.067-122.607 96.375-168.678 47.307-46.067 106.618-77.892 171.151-91.84s131.691-9.455 193.792 12.966c62.101 22.426 116.646 61.871 157.397 113.83 40.751 51.964 66.065 114.342 73.054 180.015 6.985 65.673-4.638 131.985-33.545 191.362s-73.929 109.42-129.924 144.413c-55.991 34.993-120.7 53.523-186.722 53.473z" />
<glyph unicode="&#xe914;" glyph-name="abstract-21" d="M388.183 158.853c-35.386 5.525-68.176 21.918-93.829 46.899-23.696 23.97-39.983 54.255-46.915 87.236-7.115 33.092-4.175 67.55 8.445 98.961 4.148 10.108 9.171 19.84 15.013 29.077 6.455 10.59 14.174 20.352 22.988 29.077 24.455 24.051 55.459 40.367 89.137 46.899 10.954 2.278 22.121 3.379 33.309 3.285h1.877c33.593-0.29 66.31-10.756 93.83-30.016 27.895-19.341 49.31-46.635 61.457-78.323 9.028-2.432 18.33-3.691 27.678-3.755 16.081 0.26 31.974 3.439 46.916 9.382 15.407 6.49 29.423 15.885 41.284 27.669 11.785 11.682 21.184 25.54 27.682 40.802 6.093 14.912 9.429 30.801 9.852 46.902v14.54c-14.643 22.809-31.625 44.029-50.671 63.315-6.566 6.566-37.53 32.83-38.938 33.768-62.797 48.695-139.631 75.835-219.090 77.386h-8.445c-15.689-0.162-31.355-1.258-46.914-3.283l-18.766-3.752-32.371-7.504-20.173-7.035-29.556-11.725-18.297-7.035c-3.532-1.531-6.977-3.253-10.321-5.159-6.568-3.283-12.667-7.973-18.766-11.725l-10.321-6.097c-43.442-29.419-80.076-67.8-107.434-112.561-33.519-55.447-52.106-118.624-53.952-183.379-2.236-63.863 12.151-127.215 41.754-183.851 29.255-57.058 72.82-105.549 126.435-140.732 53.615-35.187 115.446-55.859 179.448-60.002 63.717-4.122 127.418 8.256 184.946 35.947 57.532 27.686 106.944 69.747 143.454 122.108-38.106-12.16-77.76-18.79-117.756-19.699-75.341 1.088-148.971 22.652-212.99 62.379zM944.606 685.533c-22.72 47.178-55.151 89.029-95.172 122.812-40.017 33.783-86.72 58.738-137.054 73.231-49.801 14.391-102.084 18.067-153.408 10.787-52.036-6.955-101.995-24.896-146.563-52.631s-82.725-64.631-111.937-108.237c38.25 11.192 77.9 16.878 117.755 16.884 76.454 0.262 151.484-20.682 216.747-60.501 35.46-5.281 68.322-21.707 93.828-46.9 23.77-23.728 40.077-53.888 46.912-86.766 7.117-33.091 4.177-67.552-8.444-98.959-2.483-6.626-5.461-13.052-8.913-19.23 3.494 5.901 6.63 12.011 9.382 18.291-8.858-22.541-22.089-43.102-38.938-60.501-20.241-20.083-45.15-34.825-72.495-42.901-27.349-8.077-56.273-9.242-84.177-3.379-27.908 5.858-53.922 18.551-75.708 36.945s-38.66 41.907-49.109 68.429l-29.086 3.285c-17.271 0.111-34.373-3.405-50.199-10.321-15.833-6.643-30.185-16.367-42.223-28.608-11.738-12.518-20.974-27.162-27.211-43.149-6.138-16.149-8.854-33.399-7.975-50.654v-11.725c14.027-22.592 30.38-43.652 48.791-62.844 46.375-46.246 104.156-79.415 167.486-96.145 30.972-5.508 62.366-8.333 93.828-8.444 48.329 0.307 96.132 10.022 140.745 28.608 45.282 18.799 86.293 46.558 120.567 81.609 39.036 34.859 70.080 77.734 91.017 125.692 20.015 48.329 29.611 100.335 28.156 152.623s-13.926 103.68-36.604 150.822v1.876z" />
<glyph unicode="&#xe915;" glyph-name="abstract-22" d="M902.473 534.967h-390.716v346.016c-1.438 10.651-6.063 20.641-13.286 28.698s-16.717 13.816-27.273 16.545c-10.56 2.729-21.705 2.304-32.013-1.22-10.313-3.524-19.326-9.989-25.894-18.571l-340.11-507.384c-4.701-8.23-7.133-17.532-7.055-26.974 0.079-9.446 2.665-18.705 7.503-26.863 4.838-8.154 11.758-14.925 20.075-19.631 8.316-4.71 17.739-7.198 27.334-7.215h390.719v-346.014c1.434-10.654 6.059-20.642 13.282-28.698 7.223-8.060 16.717-13.815 27.273-16.546 10.56-2.731 21.705-2.304 32.013 1.22 10.313 3.524 19.328 9.988 25.894 18.573l340.109 507.383c4.702 8.23 7.134 17.532 7.057 26.974-0.081 9.446-2.667 18.705-7.505 26.863-4.838 8.155-11.759 14.924-20.075 19.633s-17.741 7.196-27.332 7.212z" />
<glyph unicode="&#xe916;" glyph-name="abstract-23" d="M949.414 577.942h-293.986l-93.589 280.597c-3.405 10.862-10.18 20.352-19.345 27.090s-20.241 10.371-31.612 10.371c-11.371 0-22.447-3.633-31.612-10.371s-15.94-16.229-19.345-27.090l-89.178-280.597h-293.989c-11.656 0.441-23.136-2.95-32.686-9.656s-16.644-16.357-20.199-27.479c-3.555-11.123-3.375-23.104 0.512-34.113 3.887-11.012 11.268-20.446 21.014-26.863l238.621-173.167-91.626-279.125c-3.543-10.761-3.578-22.37-0.102-33.156s10.285-20.186 19.444-26.842c9.159-6.66 20.194-10.231 31.512-10.206s22.336 3.657 31.462 10.359l238.129 173.163 238.131-173.163c9.126-6.703 20.143-10.334 31.462-10.359s22.353 3.546 31.514 10.206c9.156 6.656 15.966 16.055 19.443 26.842s3.443 22.396-0.102 33.156l-91.136 280.597 238.622 173.167c9.084 6.647 15.838 16 19.302 26.718 3.46 10.719 3.452 22.259-0.026 32.973-3.473 10.714-10.244 20.055-19.337 26.691s-20.049 10.225-31.3 10.258z" />
<glyph unicode="&#xe917;" glyph-name="abstract-24" d="M511.108 756.349l172.941 101.517c6.865 4.025 14.652 6.141 22.579 6.134 7.923-0.007 15.71-2.137 22.566-6.174s12.544-9.84 16.486-16.822c3.947-6.982 6.007-14.898 5.982-22.948v-203.035l-240.555-140.832-240.556 140.832v201.044c-0.028 8.050 2.034 15.966 5.979 22.948s9.632 12.785 16.489 16.822c6.857 4.038 14.64 6.167 22.566 6.174s15.713-2.109 22.577-6.134l172.946-99.526zM43.723 419.461c-6.812-4.028-12.464-9.801-16.393-16.742s-5.996-14.81-5.996-22.818c0-8.009 2.067-15.872 5.996-22.814s9.581-12.719 16.393-16.747l172.945-99.529v-203.034c-0.028-8.051 2.034-15.966 5.978-22.946 3.945-6.985 9.632-12.787 16.489-16.823s14.641-6.17 22.566-6.174c7.925-0.009 15.713 2.108 22.576 6.131l173.434 99.529v279.671l-240.554 143.814-173.434-101.519zM978.5 419.473l-172.945 99.527-241.045-141.827v-282.159l173.436-99.524c6.861-4.028 14.652-6.14 22.575-6.135 7.927 0.009 15.71 2.138 22.566 6.174 6.857 4.041 12.544 9.843 16.491 16.823 3.942 6.985 6.003 14.899 5.978 22.946v203.533l172.945 99.529c7.287 3.878 13.393 9.707 17.651 16.853 4.258 7.151 6.511 15.347 6.511 23.701 0 8.358-2.253 16.555-6.511 23.706-4.258 7.147-10.364 12.975-17.651 16.853z" />
<glyph unicode="&#xe918;" glyph-name="abstract-25" d="M924.8 303.911l-229.333-132.553c-13.948-8.051-29.764-12.292-45.867-12.292s-31.923 4.241-45.867 12.292l-229.334 132.553c-13.731 7.927-25.175 19.273-33.213 32.939s-12.398 29.184-12.653 45.035v266.027c-0.064 16.164 4.144 32.058 12.198 46.073s19.669 25.652 33.668 33.735l229.334 132.096c13.943 8.051 29.764 12.29 45.867 12.29s31.919-4.239 45.867-12.29l229.333-132.096c13.999-8.082 25.613-19.72 33.668-33.735s12.262-29.909 12.198-46.073v-266.027c-0.256-15.851-4.617-31.369-12.655-45.035s-19.482-25.011-33.212-32.939zM351.466 264.009c-20.73 11.964-37.979 29.133-50.045 49.805s-18.53 44.134-18.755 68.070v169.248c-16.111-0.029-31.931-4.3-45.867-12.384l-137.6-79.347c-13.666-7.889-25.067-19.166-33.102-32.742-8.035-13.581-12.431-29.001-12.765-44.774v-159.155c0.017-16.090 4.263-31.889 12.314-45.815s19.622-25.493 33.553-33.536l137.6-82.56c13.945-8.051 29.764-12.288 45.867-12.288s31.921 4.237 45.867 12.288l137.6 79.351c14.677 8.708 26.726 21.227 34.859 36.233l-149.526 87.607zM878.933 152.551c-17.493 10.099-37.828 14.144-57.852 11.503-20.023-2.637-38.618-11.81-52.898-26.099-14.276-14.285-23.441-32.883-26.069-52.907-2.628-20.028 1.425-40.363 11.533-57.847s25.702-31.147 44.369-38.865c18.667-7.718 39.356-9.058 58.859-3.819 19.507 5.244 36.736 16.777 49.020 32.815 12.279 16.034 18.927 35.674 18.906 55.872-0.017 16.085-4.262 31.885-12.314 45.811s-19.622 25.493-33.553 33.536z" />
<glyph unicode="&#xe919;" glyph-name="abstract-26" d="M466.603 472.828l-377.304 150.952c-10.208 4.074-18.961 11.128-25.129 20.249s-9.464 19.889-9.464 30.91c0 11.022 3.297 21.789 9.464 30.91s14.921 16.175 25.129 20.249l377.304 150.495c29.385 11.654 62.084 11.654 91.469 0l375.932-150.495c10.206-4.074 18.961-11.128 25.126-20.249 6.17-9.121 9.468-19.889 9.468-30.91s-3.298-21.789-9.468-30.91c-6.165-9.121-14.921-16.175-25.126-20.249l-375.932-150.952c-29.466-11.213-62.003-11.213-91.469 0zM936.747 230.106l-58.539 23.403-283.093-113.792c-52.292-20.796-110.519-20.796-162.812 0l-285.837 113.792-58.54-23.403c-10.208-4.075-18.961-11.127-25.129-20.25-6.167-9.118-9.464-19.887-9.464-30.908s3.297-21.79 9.464-30.912c6.167-9.118 14.921-16.175 25.129-20.245l378.676-150.498c30.191-12.39 64.021-12.39 94.212 0l375.932 150.498c10.155 4.207 18.816 11.379 24.862 20.582 6.046 9.207 9.199 20.019 9.054 31.040-0.149 11.025-3.593 21.747-9.882 30.788-6.293 9.037-15.142 15.97-25.408 19.904h1.374zM936.747 477.876l-121.651 48.175-238.733-95.893c-41.092-16.542-86.959-16.542-128.055 0l-238.729 95.893-120.28-48.175c-10.066-4.151-18.675-11.209-24.734-20.275s-9.294-19.738-9.294-30.656c0-10.918 3.235-21.589 9.294-30.656 6.059-9.071 14.668-16.128 24.734-20.275l377.304-150.955c30.281-11.917 63.932-11.917 94.212 0l375.932 150.955c10.010 4.284 18.526 11.456 24.465 20.608s9.033 19.866 8.883 30.784c-0.145 10.918-3.524 21.547-9.707 30.532s-14.891 15.927-25.015 19.938h1.374z" />
<glyph unicode="&#xe91a;" glyph-name="abstract-27" d="M712.294 727.112l264.892-264.89c4.693-4.655 8.422-10.193 10.961-16.299 2.543-6.101 3.853-12.646 3.853-19.255s-1.31-13.154-3.853-19.255c-2.539-6.106-6.268-11.644-10.961-16.299l-164.74-164.74-300.446 300.442 200.294 200.297zM46.812 391.113l264.892-264.892 200.296 200.299-300.445 300.443-164.744-164.742c-4.693-4.655-8.418-10.193-10.961-16.299-2.542-6.101-3.851-12.646-3.851-19.255s1.309-13.154 3.851-19.255c2.542-6.106 6.267-11.644 10.961-16.299zM812.446 226.373l-264.892-264.892c-4.655-4.693-10.193-8.422-16.299-10.961-6.101-2.543-12.646-3.853-19.255-3.853s-13.154 1.31-19.255 3.853c-6.106 2.539-11.644 6.268-16.299 10.961l-164.742 164.74 300.443 300.446 200.299-200.294zM476.446 891.855l-264.89-264.892 200.297-200.296 300.442 300.445-164.74 164.744c-4.655 4.693-10.193 8.418-16.299 10.961-6.101 2.542-12.646 3.851-19.255 3.851s-13.154-1.309-19.255-3.851c-6.106-2.542-11.644-6.267-16.299-10.961z" />
<glyph unicode="&#xe91b;" glyph-name="abstract-28" d="M64 673.067c0 39.873 11.824 78.85 33.976 112.003s53.638 58.993 90.475 74.251c36.838 15.258 77.373 19.251 116.479 11.472s75.028-26.979 103.223-55.174c28.195-28.194 47.395-64.116 55.173-103.223s3.789-79.642-11.473-116.479c-15.258-36.838-41.097-68.323-74.249-90.476s-72.131-33.975-112.003-33.975c-26.491-0.060-52.733 5.116-77.219 15.228-24.486 10.108-46.733 24.956-65.466 43.688s-33.58 40.98-43.69 65.466c-10.11 24.486-15.284 50.728-15.226 77.219zM758.4 471.467c39.872 0 78.848 11.823 112.004 33.975 33.152 22.153 58.991 53.638 74.249 90.476 15.262 36.838 19.251 77.373 11.473 116.479s-26.978 75.028-55.172 103.223c-28.194 28.194-64.115 47.395-103.223 55.174s-79.642 3.786-116.48-11.472c-36.838-15.258-68.322-41.098-90.475-74.251s-33.975-72.13-33.975-112.003c-0.060-26.491 5.116-52.733 15.228-77.219 10.108-24.486 24.956-46.734 43.686-65.466 18.735-18.732 40.981-33.58 65.468-43.688 24.486-10.112 50.726-15.287 77.218-15.228zM64 180.267c0 39.872 11.824 78.852 33.976 112.004s53.638 58.991 90.475 74.249c36.838 15.262 77.373 19.251 116.479 11.473s75.028-26.978 103.223-55.172c28.195-28.194 47.395-64.115 55.173-103.223s3.789-79.642-11.473-116.48c-15.258-36.838-41.097-68.322-74.249-90.475s-72.131-33.975-112.003-33.975c-26.491-0.060-52.733 5.116-77.219 15.228-24.486 10.108-46.733 24.956-65.466 43.686-18.732 18.735-33.58 40.981-43.69 65.468s-15.284 50.726-15.226 77.218zM556.8 180.267c0 39.872 11.823 78.852 33.975 112.004s53.636 58.991 90.475 74.249c36.838 15.262 77.372 19.251 116.48 11.473s75.029-26.978 103.223-55.172c28.194-28.194 47.394-64.115 55.172-103.223s3.789-79.642-11.473-116.48c-15.258-36.838-41.097-68.322-74.249-90.475-33.156-22.153-72.132-33.975-112.004-33.975-26.492-0.060-52.732 5.116-77.218 15.228-24.486 10.108-46.733 24.956-65.468 43.686-18.731 18.735-33.579 40.981-43.686 65.468-10.112 24.486-15.287 50.726-15.228 77.218z" />
<glyph unicode="&#xe91c;" glyph-name="abstract-29" d="M299.79 756.772c0-23.317-6.915-46.111-19.869-65.499s-31.367-34.499-52.91-43.421c-21.542-8.923-45.247-11.258-68.116-6.709s-43.876 15.777-60.364 32.265c-16.488 16.488-27.716 37.495-32.265 60.364s-2.214 46.574 6.709 68.116c8.923 21.542 24.034 39.955 43.422 52.909s42.182 19.869 65.499 19.869c31.267 0 61.254-12.421 83.364-34.531s34.531-52.096 34.531-83.364zM512 874.667c-23.317 0-46.11-6.915-65.498-19.869s-34.5-31.367-43.423-52.909c-8.923-21.542-11.258-45.247-6.708-68.116s15.777-43.876 32.267-60.364c16.486-16.488 37.491-27.716 60.361-32.265s46.575-2.214 68.117 6.709c21.542 8.923 39.957 24.034 52.911 43.421s19.87 42.182 19.87 65.499c0 31.268-12.425 61.255-34.534 83.364-22.106 22.109-52.096 34.531-83.362 34.531zM960 756.772c0-23.317-6.916-46.111-19.87-65.499s-31.364-34.499-52.907-43.421c-21.542-8.923-45.248-11.258-68.117-6.709s-43.878 15.777-60.365 32.265c-16.486 16.488-27.716 37.495-32.265 60.364s-2.214 46.574 6.707 68.116c8.926 21.542 24.034 39.955 43.422 52.909s42.18 19.869 65.498 19.869c31.27 0 61.257-12.421 83.366-34.531s34.53-52.096 34.53-83.364zM299.79 426.667c0-23.317-6.915-46.11-19.869-65.498s-31.367-34.5-52.91-43.422c-21.542-8.926-45.247-11.26-68.116-6.711-22.869 4.553-43.876 15.778-60.364 32.269-16.488 16.486-27.716 37.491-32.265 60.361s-2.214 46.575 6.709 68.117c8.923 21.542 24.034 39.957 43.422 52.91 19.388 12.954 42.182 19.869 65.499 19.869 31.267 0 61.254-12.421 83.364-34.533 22.109-22.106 34.531-52.096 34.531-83.362zM629.897 426.667c0-23.317-6.916-46.11-19.87-65.498s-31.369-34.5-52.911-43.422c-21.542-8.926-45.248-11.26-68.117-6.711-22.869 4.553-43.874 15.778-60.361 32.269-16.49 16.486-27.718 37.491-32.267 60.361s-2.214 46.575 6.708 68.117c8.923 21.542 24.035 39.957 43.423 52.91 19.388 12.954 42.18 19.869 65.498 19.869 31.266 0 61.257-12.421 83.362-34.533 22.11-22.106 34.534-52.096 34.534-83.362zM960 426.667c0-23.317-6.916-46.11-19.87-65.498s-31.364-34.5-52.907-43.422c-21.542-8.926-45.248-11.26-68.117-6.711-22.869 4.553-43.878 15.778-60.365 32.269-16.486 16.486-27.716 37.491-32.265 60.361s-2.214 46.575 6.707 68.117c8.926 21.542 24.034 39.957 43.422 52.91 19.388 12.954 42.18 19.869 65.498 19.869 31.27 0 61.257-12.421 83.366-34.533 22.11-22.106 34.53-52.096 34.53-83.362zM299.79 96.564c0-23.317-6.915-46.114-19.869-65.502s-31.367-34.496-52.91-43.422c-21.542-8.922-45.247-11.255-68.116-6.707s-43.876 15.778-60.364 32.265c-16.488 16.486-27.716 37.495-32.265 60.365s-2.214 46.575 6.709 68.117c8.923 21.542 24.034 39.953 43.422 52.907 19.388 12.958 42.182 19.87 65.499 19.87 31.267 0 61.254-12.42 83.364-34.53s34.531-52.096 34.531-83.362zM629.897 96.564c0-23.317-6.916-46.114-19.87-65.502s-31.369-34.496-52.911-43.422c-21.542-8.922-45.248-11.255-68.117-6.707s-43.874 15.778-60.361 32.265c-16.49 16.486-27.718 37.495-32.267 60.365s-2.214 46.575 6.708 68.117c8.923 21.542 24.035 39.953 43.423 52.907 19.388 12.958 42.18 19.87 65.498 19.87 31.266 0 61.257-12.42 83.362-34.53 22.11-22.11 34.534-52.096 34.534-83.362zM960 96.564c0-23.317-6.916-46.114-19.87-65.502s-31.364-34.496-52.907-43.422c-21.542-8.922-45.248-11.255-68.117-6.707s-43.878 15.778-60.365 32.265c-16.486 16.486-27.716 37.495-32.265 60.365s-2.214 46.575 6.707 68.117c8.926 21.542 24.034 39.953 43.422 52.907 19.388 12.958 42.18 19.87 65.498 19.87 31.27 0 61.257-12.42 83.366-34.53s34.53-52.096 34.53-83.362z" />
<glyph unicode="&#xe91d;" glyph-name="abstract-30" d="M264.533 763.734c0-17.721-5.255-35.044-15.1-49.779s-23.839-26.219-40.211-33.001c-16.372-6.781-34.388-8.556-51.769-5.099s-33.346 11.991-45.876 24.522c-12.531 12.531-21.065 28.496-24.522 45.876s-1.683 35.396 5.099 51.769c6.782 16.372 18.266 30.366 33.001 40.211s32.058 15.1 49.779 15.1c23.764 0 46.554-9.44 63.357-26.243s26.243-39.593 26.243-63.357zM533.333 494.934c-17.719 0-35.046-5.257-49.779-15.1-14.733-9.847-26.219-23.838-32.998-40.213-6.784-16.371-8.559-34.385-5.099-51.767 3.456-17.378 11.989-33.344 24.521-45.875s28.497-21.065 45.875-24.521c17.382-3.46 35.396-1.685 51.767 5.099 16.375 6.78 30.366 18.266 40.213 32.998 9.843 14.733 15.1 32.060 15.1 49.779 0 23.765-9.438 46.554-26.244 63.356-16.802 16.806-39.59 26.244-63.356 26.244zM264.533 405.334c0-17.719-5.255-35.046-15.1-49.779s-23.839-26.219-40.211-32.998c-16.372-6.784-34.388-8.559-51.769-5.099-17.381 3.456-33.346 11.989-45.876 24.521s-21.065 28.497-24.522 45.875c-3.457 17.382-1.683 35.396 5.099 51.767 6.782 16.375 18.266 30.366 33.001 40.213 14.735 9.843 32.058 15.1 49.779 15.1 23.764 0 46.554-9.438 63.357-26.244 16.803-16.802 26.243-39.59 26.243-63.356zM981.333 405.334c0-17.719-5.257-35.046-15.1-49.779-9.847-14.733-23.838-26.219-40.213-32.998-16.371-6.784-34.385-8.559-51.767-5.099-17.382 3.456-33.344 11.989-45.875 24.521s-21.065 28.497-24.525 45.875c-3.456 17.382-1.681 35.396 5.103 51.767 6.78 16.375 18.266 30.366 32.998 40.213 14.733 9.843 32.060 15.1 49.779 15.1 23.765 0 46.554-9.438 63.356-26.244 16.802-16.802 26.244-39.59 26.244-63.356zM622.933 763.734c0-17.721-5.257-35.044-15.1-49.779-9.847-14.735-23.838-26.219-40.213-33.001-16.371-6.781-34.385-8.556-51.767-5.099-17.378 3.457-33.344 11.991-45.875 24.522s-21.065 28.496-24.521 45.876c-3.46 17.381-1.685 35.396 5.099 51.769 6.78 16.372 18.266 30.366 32.998 40.211s32.060 15.1 49.779 15.1c23.765 0 46.554-9.44 63.356-26.243 16.806-16.803 26.244-39.593 26.244-63.357zM981.333 763.734c0-17.721-5.257-35.044-15.1-49.779-9.847-14.735-23.838-26.219-40.213-33.001-16.371-6.781-34.385-8.556-51.767-5.099s-33.344 11.991-45.875 24.522c-12.531 12.531-21.065 28.496-24.525 45.876-3.456 17.381-1.681 35.396 5.103 51.769 6.78 16.372 18.266 30.366 32.998 40.211s32.060 15.1 49.779 15.1c23.765 0 46.554-9.44 63.356-26.243s26.244-39.593 26.244-63.357zM622.933 46.934c0-17.719-5.257-35.046-15.1-49.779-9.847-14.733-23.838-26.219-40.213-32.998-16.371-6.784-34.385-8.559-51.767-5.099-17.378 3.456-33.344 11.989-45.875 24.521s-21.065 28.497-24.521 45.875c-3.46 17.382-1.685 35.396 5.099 51.767 6.78 16.375 18.266 30.366 32.998 40.213 14.733 9.843 32.060 15.1 49.779 15.1 23.765 0 46.554-9.438 63.356-26.244 16.806-16.802 26.244-39.59 26.244-63.356zM264.533 46.934c0-17.719-5.255-35.046-15.1-49.779s-23.839-26.219-40.211-32.998c-16.372-6.784-34.388-8.559-51.769-5.099-17.381 3.456-33.346 11.989-45.876 24.521s-21.065 28.497-24.522 45.875c-3.457 17.382-1.683 35.396 5.099 51.767 6.782 16.375 18.266 30.366 33.001 40.213 14.735 9.843 32.058 15.1 49.779 15.1 23.764 0 46.554-9.438 63.357-26.244 16.803-16.802 26.243-39.59 26.243-63.356zM981.333 46.934c0-17.719-5.257-35.046-15.1-49.779-9.847-14.733-23.838-26.219-40.213-32.998-16.371-6.784-34.385-8.559-51.767-5.099-17.382 3.456-33.344 11.989-45.875 24.521s-21.065 28.497-24.525 45.875c-3.456 17.382-1.681 35.396 5.103 51.767 6.78 16.375 18.266 30.366 32.998 40.213 14.733 9.843 32.060 15.1 49.779 15.1 23.765 0 46.554-9.438 63.356-26.244 16.802-16.802 26.244-39.59 26.244-63.356z" />
<glyph unicode="&#xe91e;" glyph-name="abstract-31" d="M510.588 896.004c-84.604-0.072-167.607-23.11-240.192-66.666s-132.041-106.006-172.050-180.712c-40.010-74.706-59.079-158.88-55.182-243.574 3.898-84.698 30.616-166.754 77.316-237.453l263.661 152.533v321.024l370.905-214.485-572.28-332.757c54.639-54.464 121.846-94.571 195.659-116.77 73.812-22.195 151.952-25.792 227.485-10.475s146.125 49.079 205.521 98.295c59.392 49.212 105.749 112.35 134.959 183.821 29.21 71.467 40.371 149.056 32.491 225.886-7.881 76.825-34.56 150.516-77.666 214.535s-101.312 116.388-169.451 152.462c-68.143 36.074-144.115 54.738-221.175 54.337z" />
<glyph unicode="&#xe91f;" glyph-name="abstract-32" d="M948.514 597.904c-36.855 94.106-103.095 173.792-188.855 227.206-85.764 53.414-186.47 77.7-287.138 69.245-100.665-8.454-195.915-49.196-271.578-116.166s-127.696-156.589-148.359-255.526c-20.662-98.936-8.85-201.903 33.679-293.581 42.529-91.682 113.504-167.172 202.364-215.253 88.861-48.077 190.861-66.167 290.825-51.584 99.964 14.588 192.55 61.069 263.987 132.535 64.836 64.35 109.355 146.334 128.038 235.776 18.679 89.442 10.692 182.405-22.963 267.348zM511.791 160.956l-265.507 265.643 265.507 265.641 265.506-265.641-265.506-265.643z" />
<glyph unicode="&#xe920;" glyph-name="abstract-33" d="M981.333 426.667c-0.004-82.385-21.696-163.319-62.891-234.667l-270.81 469.333h270.81c41.195-71.346 62.886-152.282 62.891-234.667zM105.546 661.334l135.639-234.667 270.81 469.333c-82.385-0.002-163.318-21.689-234.665-62.882s-130.593-100.439-171.785-171.785zM105.546 192c41.192-71.347 100.439-130.594 171.785-171.785 71.346-41.195 152.279-62.882 234.665-62.882l135.637 234.667h-542.087zM918.443 661.334h-542.088l135.641 234.667c82.381-0.002 163.315-21.689 234.662-62.882 71.343-41.193 130.59-100.439 171.785-171.785zM105.546 661.334c-41.193-71.348-62.88-152.282-62.88-234.667s21.687-163.319 62.88-234.667h270.809l-270.809 469.333zM782.801 426.667l-270.805-469.333c82.381 0 163.315 21.687 234.662 62.882 71.343 41.19 130.59 100.437 171.785 171.785l-135.642 234.667z" />
<glyph unicode="&#xe921;" glyph-name="abstract-34" d="M512.004 896c82.385-0.003 163.319-21.694 234.667-62.891l-99.029-171.777h-271.277l-99.030 171.777c71.347 41.197 152.28 62.888 234.67 62.891zM981.338 426.663c0-82.381-21.687-163.315-62.882-234.658-41.19-71.347-100.437-130.594-171.785-171.785l-99.029 171.776 135.168 234.667h198.528zM241.196 426.663l135.168-234.667-99.030-171.776c-71.346 41.19-130.593 100.437-171.786 171.785-41.193 71.343-62.88 152.277-62.882 234.658h198.529zM782.81 473.596h195.712c-6.763 66.027-27.452 129.867-60.702 187.308s-78.306 107.176-132.194 145.923l-97.152-168.961-13.611-23.467 80.725-140.803h27.221zM605.871 168.529l-13.141 23.467h-162.389l-13.143-23.467-97.622-169.429c60.417-27.524 126.036-41.766 192.429-41.766 66.389 0 132.011 14.242 192.427 41.766l-98.56 169.429zM241.196 473.596h27.221l80.726 140.803-13.611 23.467-97.152 168.961c-53.887-38.747-98.942-88.482-132.193-145.923s-53.941-121.28-60.704-187.308h195.713z" />
<glyph unicode="&#xe922;" glyph-name="abstract-35" d="M52.053 519.582c20.246 100.805 72.875 192.186 149.836 260.163s174.017 108.808 276.319 116.245l-113.579-112.922 107.008-123.744c-34.854-6.179-67.86-20.181-96.551-40.959s-52.322-47.792-69.124-79.021l-144.085-129.863-109.824 110.101zM861.184 447.126l-136.576-115.746c-15.71-34.953-39.697-65.523-69.879-89.058-30.187-23.535-65.647-39.322-103.305-45.978l107.947-123.277-114.048-115.742c102.387 7.334 199.548 48.124 276.604 116.109s129.754 159.42 150.020 260.297l-110.763 113.395zM605.867 888.932c100.553-20.296 191.706-73.057 259.511-150.211 67.81-77.154 108.535-174.453 115.955-277.012l-114.517 113.393-123.904-105.393c-6.81 36.386-22.093 70.648-44.599 100-22.511 29.351-51.61 52.962-84.937 68.913l-120.149 141.153 112.64 109.158zM530.773 76.834l-123.904 141.15c-33.111 16.674-61.813 40.973-83.757 70.903s-36.506 64.644-42.494 101.303l-122.496-110.571-115.456 114.334c7.418-102.558 48.147-199.855 115.954-277.009s158.959-129.916 259.513-150.212l112.64 110.101z" />
<glyph unicode="&#xe923;" glyph-name="abstract-36" d="M512.738 135.872v290.795l245.346-145.647c24.811-14.771 45.393-35.985 59.695-61.508 14.298-25.527 21.803-54.468 21.764-83.917-0.043-29.449-7.625-58.372-21.99-83.857s-35.008-46.639-59.857-61.338c-24.845-14.699-53.018-22.426-81.694-22.4-28.672 0.026-56.832 7.799-81.655 22.541s-45.431 35.93-59.755 61.44c-14.327 25.51-21.862 54.443-21.854 83.891zM267.388 281.020l245.35 145.647-245.35 145.649c-24.911 14.823-53.185 22.645-81.975 22.679s-57.081-7.723-82.025-22.488c-24.944-14.765-45.661-36.019-60.065-61.62-14.405-25.604-21.989-54.652-21.989-84.22s7.584-58.615 21.989-84.22c14.404-25.6 35.121-46.857 60.065-61.619 24.944-14.767 53.235-22.524 82.025-22.49s57.064 7.855 81.975 22.682zM512.738 717.461v-290.794l245.346 145.649c24.811 14.769 45.393 35.982 59.695 61.508 14.298 25.527 21.803 54.467 21.764 83.916-0.043 29.449-7.625 58.369-21.99 83.855s-35.008 46.641-59.857 61.339c-24.845 14.699-53.018 22.423-81.694 22.399-28.672-0.025-56.832-7.798-81.655-22.539s-45.431-35.931-59.755-61.441c-14.327-25.511-21.862-54.444-21.854-83.892zM267.388 572.316c-24.807 14.769-45.393 35.982-59.691 61.508s-21.804 54.467-21.765 83.916c0.039 29.449 7.623 58.369 21.989 83.855s35.009 46.641 59.855 61.339c24.846 14.699 53.021 22.423 81.694 22.399s56.835-7.798 81.659-22.539c24.819-14.741 45.427-35.931 59.755-61.441 14.323-25.511 21.862-54.444 21.854-83.892v-290.794l-245.35 145.649zM758.084 281.020c24.849-14.609 53.001-22.259 81.634-22.178 28.629 0.085 56.738 7.889 81.51 22.639 24.768 14.754 45.329 35.93 59.622 61.41s21.815 54.37 21.815 83.776c0 29.406-7.522 58.295-21.815 83.776s-34.854 46.658-59.622 61.408c-24.772 14.75-52.881 22.557-81.51 22.639-28.634 0.081-56.785-7.565-81.634-22.174l-245.346-145.649 245.346-145.647zM267.388 281.020c-24.807-14.771-45.393-35.985-59.691-61.508-14.298-25.527-21.804-54.468-21.765-83.917s7.623-58.372 21.989-83.857c14.366-25.485 35.009-46.639 59.855-61.338s53.021-22.426 81.694-22.4c28.673 0.026 56.835 7.799 81.659 22.541 24.819 14.741 45.427 35.93 59.755 61.44 14.323 25.51 21.862 54.443 21.854 83.891v290.795l-245.35-145.647z" />
<glyph unicode="&#xe924;" glyph-name="abstract-37" d="M872.388 634.805c-0.179 42.104-11.396 83.426-32.525 119.846s-51.43 66.666-87.893 87.724c-36.459 21.058-77.803 32.191-119.91 32.291-42.103 0.1-83.499-10.837-120.060-31.722-36.561 20.884-77.956 31.822-120.061 31.722s-83.448-11.233-119.909-32.291c-36.461-21.058-66.767-51.304-87.895-87.724s-32.343-77.742-32.524-119.846c-36.394-21.208-66.59-51.589-87.578-88.11s-32.032-77.907-32.032-120.028c0-42.125 11.045-83.511 32.032-120.030 20.988-36.523 51.184-66.906 87.578-88.111 0.182-42.103 11.396-83.426 32.524-119.846s51.434-66.667 87.895-87.727c36.461-21.056 77.804-32.188 119.909-32.29 42.105-0.098 83.5 10.837 120.061 31.723 36.561-20.885 77.956-31.821 120.060-31.723 42.108 0.102 83.452 11.234 119.91 32.29 36.463 21.060 66.765 51.307 87.893 87.727s32.346 77.743 32.525 119.846c36.395 21.205 66.594 51.588 87.578 88.111 20.988 36.518 32.034 77.905 32.034 120.030 0 42.121-11.046 83.507-32.034 120.028-20.983 36.521-51.183 66.902-87.578 88.11zM406.003 556.752c29.803 24.738 67.269 38.362 105.997 38.545 20.459-0.112 40.721-4.033 59.742-11.564 27.567-10.418 51.887-27.937 70.502-50.782s30.861-50.203 35.494-79.306c1.702-8.9 2.671-17.924 2.893-26.978-0.055-24.99-5.713-49.643-16.55-72.154-10.837-22.515-26.586-42.313-46.084-57.937-29.803-24.738-67.268-38.362-105.997-38.545-20.459 0.115-40.721 4.036-59.742 11.567-28.267 9.907-53.352 27.226-72.633 50.146s-32.052 50.598-36.975 80.141c-4.924 29.542-1.821 59.87 8.985 87.804s28.917 52.451 52.441 70.991l1.927-1.927z" />
<glyph unicode="&#xe925;" glyph-name="abstract-38" d="M299.69 248.303l204.711 354.703 146.573-256.988h283.861l-259.921 452.907c-8.691 15.057-21.239 27.523-36.356 36.111s-32.247 12.989-49.63 12.747h-226.212l-318.062-549.645c-8.299-14.95-12.654-31.761-12.654-48.858s4.355-33.911 12.654-48.858l112.861-195.43h635.147c17.468-0.329 34.701 4.028 49.911 12.621 15.206 8.593 27.836 21.107 36.565 36.237l112.862 195.43-692.31-0.977z" />
<glyph unicode="&#xe926;" glyph-name="abstract-39" d="M362.016 701.013c-28.326 15.725-57.758 29.368-88.064 40.821 45.591 49.513 95.986 94.376 150.443 133.931 28.858 5.69 58.191 8.608 87.605 8.715 29.871-0.083 59.665-3.001 88.981-8.715-88.508-45.066-169.19-104.070-238.965-174.752zM512 590.933c86.844 82.32 192.503 142.156 307.763 174.293-27.738 25.583-58.551 47.615-91.733 65.589-106.778-39.713-204.1-101.262-285.747-180.715 24.354-18.372 47.629-38.127 69.717-59.168zM282.667 58.88c0-9.788 0-19.418 0-28.898-36.052 20.211-69.091 45.376-98.155 74.765-11.715 44.732-39.892 83.396-78.891 108.245-19.040 36.156-33.081 74.731-41.739 114.667 61.752-12.937 117.186-46.694 157.015-95.625s61.637-110.063 61.769-173.154zM449.165 523.967c-86.875 83.058-195.485 139.828-313.271 163.744-18.208-26.769-33.58-55.36-45.867-85.312 115.663-17.146 222.753-71.013 305.472-153.652 16.153 26.266 34.082 51.401 53.666 75.22zM62.048 513.877c-5.714-29.008-8.632-58.499-8.715-88.063v-2.752c52.020-6.579 102.026-24.23 146.65-51.763s82.828-64.311 112.038-107.853c10.134 34.185 22.703 67.601 37.611 99.989-74.135 83.759-176.501 137.31-287.584 150.442zM466.133 58.88c0.205 131.759 47.671 259.072 133.773 358.81 86.101 99.736 205.124 165.275 335.445 184.71-12.288 30.098-27.657 58.842-45.871 85.771-145.293-29.327-275.968-108.017-369.852-222.719-93.882-114.701-145.195-258.347-145.229-406.571 0-24.311 0-48.162 4.128-72.013 31.104-9.216 63.072-15.211 95.405-17.886-4.932 29.717-7.539 59.776-7.799 89.899zM839.488 104.747c11.716 44.732 39.893 83.396 78.891 108.245 19.038 36.156 33.079 74.731 41.741 114.667-61.756-12.937-117.188-46.694-157.018-95.625s-61.636-110.063-61.769-173.154c0-9.788 0-19.418 0-28.898 36.053 20.211 69.090 45.376 98.155 74.765zM649.6 58.88c0.081 89.314 32.738 175.535 91.844 242.496 59.106 66.957 140.608 110.063 229.222 121.225v3.213c-0.081 29.564-2.999 59.055-8.717 88.063-62.579-7.534-122.935-27.89-177.297-59.792-54.366-31.902-101.568-74.667-138.671-125.623-37.099-50.957-63.296-109.018-76.958-170.551s-14.494-125.222-2.441-187.093c31.185 3.315 61.935 9.924 91.729 19.721-5.013 22.464-7.932 45.342-8.713 68.343z" />
<glyph unicode="&#xe927;" glyph-name="abstract-40" d="M702.95 250.983c3.575 14.788 5.389 29.948 5.402 45.163 0.273 34.526-8.892 68.476-26.509 98.172-17.216 29.82-41.971 54.588-71.782 71.821s-63.629 26.321-98.061 26.355c-10.189-0.469-20.343-1.455-30.434-2.944-196.351-25.037-330.36-198.805-430.989-367.667l406.447 706.371c5.538 9.692 13.538 17.747 23.194 23.35s20.621 8.553 31.782 8.553c11.162 0 22.127-2.951 31.782-8.553s17.655-13.658 23.194-23.35l14.729-26.016c94.737-168.37 175.735-367.173 121.246-551.254zM994.039 86.541l-412.335 715.696c94.737-168.37 175.735-367.173 121.246-551.254-0.149-2.125-0.149-4.258 0-6.379-3.968-15.040-9.737-29.542-17.182-43.2-17.289-30.767-42.556-56.307-73.135-73.929s-65.344-26.675-100.634-26.21c-43.435-0.166-85.647 14.366-119.774 41.233 137.937-132.535 354.906-149.717 546.837-149.717 11.162-0.047 22.14 2.854 31.821 8.414s17.719 13.581 23.3 23.249c5.581 9.668 8.508 20.642 8.482 31.804s-2.999 22.123-8.627 31.765v-1.472zM431.497-7.219h-346.559c-11.163-0.047-22.141 2.854-31.822 8.414s-17.718 13.581-23.3 23.249c-5.582 9.668-8.508 20.642-8.483 31.804s3.001 22.123 8.626 31.765l20.617 35.341c100.629 168.862 233.657 343.616 430.989 367.667-131.064-18.654-196.351-152.661-175.243-272.926 6.979-45.687 22.109-89.749 44.67-130.082 21.104-36.177 48.345-68.399 80.504-95.232z" />
<glyph unicode="&#xe928;" glyph-name="abstract-41" d="M960 713.457l-127.607 126.229c-9.118 9.454-20.693 16.18-33.421 19.423-12.732 3.243-26.112 2.875-38.643-1.062-127.607-45.902-470.493-37.18-537.509 17.902l-124.852-128.066c-9.544-9.251-16.286-21.007-19.453-33.916s-2.629-26.45 1.551-39.068c21.507-79.566 31.554-161.793 29.836-244.196 0-174.426-32.131-273.114-45.902-291.017l125.771-126.229c9.12-9.455 20.694-16.179 33.423-19.426 12.729-3.243 26.111-2.871 38.642 1.067 127.607 43.605 470.49 37.18 537.507-17.903l124.855 128.064c9.451 9.122 16.179 20.693 19.422 33.425 3.243 12.727 2.876 26.108-1.062 38.643-44.066 126.229-37.641 469.113 17.442 536.129zM697.442 240.209c-123.183 17.212-248.162 17.212-371.344 0 8.905 63.253 13.047 127.083 12.393 190.95 0.386 60.77-3.294 121.495-11.017 181.772 60.798-8.89 122.163-13.339 183.607-13.311 62.362-0.072 124.642 4.376 186.359 13.311-17.442-123.63-17.442-249.091 0-372.722z" />
<glyph unicode="&#xe929;" glyph-name="abstract-42" d="M970.667 610.134h-642.133l183.467 183.467h321.067c14.49 0.047 28.702-3.967 41.024-11.588s22.263-18.543 28.693-31.527l67.883-140.352zM123.509 102.848c6.43-12.983 16.37-23.906 28.693-31.526s26.535-11.635 41.024-11.588h321.069l183.467 183.467h-644.429l70.176-140.352zM835.819 38.178c12.638 6.251 23.334 15.834 30.933 27.716 7.595 11.878 11.806 25.609 12.181 39.706v321.067l-183.467 183.467v-642.133l140.352 70.178zM188.181 815.158c-12.984-6.43-23.906-16.37-31.527-28.693s-11.635-26.535-11.588-41.024v-321.069l183.467-183.467v644.429l-140.352-70.176zM970.667 610.134l-91.733-183.467-183.467 183.467h275.2zM328.533 243.2l-183.467 183.467-91.733-183.467h275.2zM695.467 243.2l-183.467-183.467 183.467-91.733v275.2zM328.533 610.134l183.467 183.467-183.467 91.733v-275.2z" />
<glyph unicode="&#xe92a;" glyph-name="abstract-43" d="M328.533 885.334v-642.133h-275.2v337.579c-0.013 9.28 1.804 18.473 5.345 27.051s8.739 16.375 15.295 22.944l254.56 254.56zM695.467 610.134v-642.133l254.558 254.558c6.558 6.571 11.755 14.366 15.296 22.946 3.541 8.576 5.359 17.771 5.346 27.051v337.579h-275.2zM970.667 610.134h-642.133v275.2h337.579c9.28 0.013 18.475-1.804 27.051-5.345 8.58-3.541 16.375-8.739 22.946-15.295l254.558-254.56zM53.333 243.2l254.56-254.558c6.569-6.558 14.365-11.755 22.944-15.296s17.771-5.359 27.051-5.346h337.579v275.2h-642.133z" />
<glyph unicode="&#xe92b;" glyph-name="abstract-44" d="M910.72 595.036l-846.72-169.346v218.626c0.032 14.154 4.956 27.862 13.937 38.802s21.467 18.44 35.343 21.23l784.896 156.8c7.471 1.609 15.202 1.521 22.635-0.257s14.37-5.2 20.301-10.015c5.935-4.815 10.709-10.9 13.978-17.806s4.949-14.458 4.911-22.098v-155.904c-0.034-14.154-4.958-27.862-13.939-38.802-8.977-10.94-21.466-18.44-35.341-21.23zM960 207.070v218.62l-846.72-169.34c-13.876-2.79-26.362-10.291-35.343-21.231s-13.904-24.649-13.937-38.801v-155.904c-0.037-7.642 1.641-15.194 4.909-22.101 3.269-6.903 8.046-12.988 13.978-17.805 5.932-4.813 12.87-8.239 20.301-10.014 7.431-1.779 15.166-1.865 22.636-0.256l784.896 156.8c13.875 2.786 26.364 10.287 35.341 21.227 8.981 10.94 13.905 24.649 13.939 38.805z" />
<glyph unicode="&#xe92c;" glyph-name="abstract-45" d="M332.791-21.333c-11.881 0-23.276 4.719-31.678 13.12-8.401 8.405-13.122 19.797-13.122 31.68v537.6c0 11.882 4.72 23.277 13.122 31.678s19.797 13.122 31.678 13.122c11.882 0 23.277-4.72 31.679-13.122s13.121-19.796 13.121-31.678v-537.6c0-11.883-4.72-23.275-13.121-31.68-8.402-8.401-19.797-13.12-31.679-13.12zM198.391 337.067v358.4c0 11.882-4.72 23.277-13.121 31.678s-19.797 13.122-31.679 13.122c-11.881 0-23.276-4.72-31.678-13.122s-13.122-19.796-13.122-31.678v-358.4c0-11.883 4.72-23.275 13.122-31.68 8.402-8.401 19.797-13.12 31.678-13.12s23.277 4.719 31.679 13.12c8.401 8.405 13.121 19.797 13.121 31.68zM511.991 68.267c-11.883 0-23.275 4.719-31.68 13.12-8.401 8.405-13.12 19.797-13.12 31.68v716.8c0 11.882 4.719 23.277 13.12 31.678 8.405 8.402 19.797 13.122 31.68 13.122s23.279-4.72 31.68-13.122c8.401-8.401 13.12-19.796 13.12-31.678v-716.8c0-11.883-4.719-23.275-13.12-31.68-8.401-8.401-19.797-13.12-31.68-13.12zM691.191 202.667c-11.883 0-23.275 4.719-31.68 13.12-8.401 8.405-13.12 19.797-13.12 31.68v492.8c0 11.882 4.719 23.277 13.12 31.678 8.405 8.402 19.797 13.122 31.68 13.122s23.279-4.72 31.68-13.122c8.401-8.401 13.12-19.796 13.12-31.678v-492.8c0-11.883-4.719-23.275-13.12-31.68-8.401-8.401-19.797-13.12-31.68-13.12zM870.391 113.067c-11.883 0-23.275 4.719-31.68 13.12-8.401 8.405-13.12 19.797-13.12 31.68v358.4c0 11.882 4.719 23.277 13.12 31.678 8.405 8.402 19.797 13.122 31.68 13.122s23.279-4.72 31.68-13.122c8.401-8.401 13.12-19.796 13.12-31.678v-358.4c0-11.883-4.719-23.275-13.12-31.68-8.401-8.401-19.797-13.12-31.68-13.12z" />
<glyph unicode="&#xe92d;" glyph-name="abstract-46" d="M511.889-64l418.014 407.744c6.541-184.491-121.229-345.429-418.014-407.744zM878.093 538.539c-27.123 53.717-60.911 103.979-100.608 149.653l-265.596-261.525v-245.333l366.204 357.205zM368.024 812.331c-45.054-37.76-86.629-79.298-124.247-124.139l268.113-261.525v245.333l-143.865 140.331zM511.889 917.334v-245.333l143.863 140.331c-45.205 38.448-93.295 73.547-143.863 105.003zM93.875 343.744l418.014-407.744v245.333l-366.202 357.205c-30.883-60.74-48.524-127.070-51.811-194.795z" />
<glyph unicode="&#xe92e;" glyph-name="abstract-47" d="M188.715 407.377c7.593 13.099 18.496 23.974 31.616 31.535s27.996 11.537 43.138 11.537c15.142 0 30.018-3.977 43.138-11.537s24.023-18.436 31.616-31.535l73.297-126.208 72.811-126.694c7.701-13.141 11.793-28.083 11.857-43.315 0.068-15.232-3.895-30.212-11.486-43.418-7.59-13.21-18.534-24.175-31.727-31.791-13.193-7.612-28.165-11.601-43.397-11.567h-291.248c-15.161 0.013-30.051 4.015-43.176 11.605s-24.022 18.496-31.596 31.629c-7.575 13.133-11.561 28.028-11.558 43.187 0.003 15.164 3.996 30.054 11.576 43.187l72.327 127.177 72.812 126.208zM980.425 153.993l-182.515 316.002-182.029 316.004c-7.663 13.091-18.615 23.95-31.77 31.496-13.158 7.546-28.062 11.516-43.23 11.516s-30.071-3.97-43.226-11.516c-13.158-7.546-24.111-18.404-31.77-31.496l-167.953-291.249c17.307-4.39 33.543-12.25 47.727-23.095s26.020-24.457 34.793-40.009l72.812-126.69 73.297-126.694c11.938-20.48 18.231-43.763 18.231-67.473 0-23.706-6.293-46.989-18.231-67.473-4.271-6.737-9.143-13.073-14.562-18.931h393.673c15.159 0.013 30.050 4.015 43.174 11.605s24.021 18.496 31.595 31.629c7.578 13.133 11.563 28.028 11.558 43.187-0.004 15.164-3.994 30.054-11.575 43.187z" />
<glyph unicode="&#xe92f;" glyph-name="abstract-48" d="M512 896c-92.825 0-183.566-27.526-260.748-79.097s-137.337-124.871-172.86-210.63c-35.523-85.76-44.817-180.127-26.708-271.169s62.809-174.669 128.446-240.307c65.638-65.634 149.265-110.336 240.306-128.444 91.042-18.112 185.408-8.815 271.168 26.705 85.76 35.524 159.061 95.68 210.633 172.86 51.571 77.184 79.095 167.923 79.095 260.749 0 61.632-12.139 122.664-35.725 179.606s-58.159 108.681-101.739 152.263c-43.584 43.581-95.322 78.152-152.265 101.739s-117.973 35.726-179.605 35.726zM512 583.424c-9.335 0-18.287 3.709-24.892 10.31-6.601 6.601-10.308 15.555-10.308 24.89s3.708 18.289 10.308 24.89c6.605 6.601 15.556 10.31 24.892 10.31 60.245 0 118.025-23.933 160.623-66.533 42.603-42.6 66.534-100.379 66.534-160.625s-23.932-118.025-66.534-160.623c-42.598-42.603-100.378-66.534-160.623-66.534-9.335 0-18.287 3.708-24.892 10.308-6.601 6.605-10.308 15.556-10.308 24.892s3.708 18.291 10.308 24.892c6.605 6.601 15.556 10.308 24.892 10.308 41.574 0 81.446 16.516 110.844 45.914s45.914 69.269 45.914 110.844c0 41.574-16.516 81.446-45.914 110.844s-69.269 45.913-110.844 45.913zM512 63.872c-96.181 0.124-188.387 38.387-256.397 106.398s-106.273 160.218-106.397 256.397c0 9.335 3.709 18.287 10.31 24.892 6.601 6.601 15.555 10.308 24.89 10.308s18.289-3.708 24.89-10.308c6.601-6.605 10.31-15.556 10.31-24.892 0-57.83 17.149-114.359 49.277-162.445s77.795-85.564 131.223-107.691c53.428-22.131 112.219-27.921 168.94-16.64 56.717 11.281 108.817 39.13 149.709 80.021s68.74 92.992 80.021 149.709c11.281 56.721 5.491 115.511-16.64 168.94-22.127 53.428-59.605 99.094-107.691 131.223-48.081 32.129-104.614 49.277-162.445 49.277-9.335 0-18.287 3.709-24.892 10.31-6.601 6.601-10.308 15.555-10.308 24.89s3.708 18.289 10.308 24.89c6.605 6.601 15.556 10.31 24.892 10.31 96.218 0 188.497-38.223 256.533-106.26s106.261-160.315 106.261-256.535c0-96.218-38.225-188.497-106.261-256.533s-160.316-106.261-256.533-106.261z" />
<glyph unicode="&#xe930;" glyph-name="abstract-49" d="M327.147 388.958h145.387v-234.675c-0.132-12.279-5.103-24.009-13.833-32.644s-20.514-13.478-32.791-13.478h-129.845c-36.144 0.064-71.921 7.249-105.289 21.141s-63.672 34.223-89.183 59.827c-25.511 25.604-45.729 55.979-59.5 89.399-13.771 33.417-20.825 111.885-20.759 148.032-0.066 36.143 6.988 114.612 20.759 148.030s33.989 63.796 59.5 89.4c25.511 25.604 55.815 45.933 89.183 59.825s69.145 21.077 105.289 21.143h130.85c12.275 0.001 24.060-4.843 32.789-13.478s13.7-20.366 13.833-32.645v-234.678h-146.389c-9.972 0-19.536-3.959-26.587-11.012s-11.013-16.614-11.013-26.586c0-9.975 3.962-19.537 11.013-26.59 7.051-7.049 16.615-11.012 26.587-11.012zM749.269 744.959h-130.347c-12.233 0-23.966-4.859-32.614-13.509s-13.508-20.381-13.508-32.614v-234.678h150.4c9.971 0 19.537-3.959 26.586-11.012 7.053-7.053 11.012-16.614 11.012-26.586 0-9.975-3.959-19.537-11.012-26.59-7.049-7.049-16.614-11.012-26.586-11.012h-150.4v-234.675c0-12.233 4.86-23.966 13.508-32.614s20.382-13.508 32.614-13.508h130.347c36.143 0.064 71.919 7.249 105.289 21.141 33.365 13.892 63.671 34.223 89.182 59.827s45.73 55.979 59.503 89.399c13.769 33.417 20.821 111.885 20.757 148.032 0.064 36.143-6.989 114.612-20.757 148.030-13.773 33.418-33.993 63.796-59.503 89.4s-55.817 45.933-89.182 59.825c-33.37 13.893-69.146 21.077-105.289 21.143zM472.533 464.158v-75.2h100.267v75.2h-100.267z" />
<glyph unicode="&#xe931;" glyph-name="abstract" d="M433.762-7.334l-324.286 324.284c-13.009 12.932-21.857 29.453-25.405 47.45-3.548 17.993-1.635 36.638 5.492 53.538l19.439 47.411c7.234 16.828 19.188 31.202 34.416 41.382s33.080 15.731 51.397 15.982h467.466l-206.234 204.34c-15.488 15.55-24.188 36.604-24.188 58.552s8.7 43.002 24.188 58.552l17.067 16.593c7.637 7.784 16.747 13.967 26.799 18.188 10.057 4.221 20.851 6.395 31.753 6.395 10.906 0 21.7-2.174 31.753-6.395s19.166-10.404 26.799-18.188l324.288-323.34c13.009-12.928 21.858-29.451 25.408-47.447 3.546-17.993 1.634-36.638-5.495-53.538l-19.439-47.411c-7.305-16.738-19.285-31.014-34.509-41.105-15.223-10.095-33.037-15.573-51.302-15.787h-467.468l206.237-206.234c15.518-15.633 24.226-36.766 24.226-58.79s-8.708-43.157-24.226-58.79l-17.067-16.593c-15.676-15.364-36.8-23.889-58.748-23.71-21.952 0.175-42.935 9.045-58.359 24.661z" />
<glyph unicode="&#xe932;" glyph-name="add-files" d="M981.316 534.473h-201.169c-37.943 1.333-73.83 17.578-99.87 45.209s-40.128 64.417-39.206 102.372c0.23 1.408 0.23 2.845 0 4.253v204.572l340.245-356.406zM981.316 469.402h-201.169c-54.903 1.668-106.927 24.947-144.755 64.768-37.833 39.822-58.415 92.969-57.267 147.884v209.675h-207.974c-31.557-0.388-62.728-6.989-91.734-19.426s-55.278-30.465-77.315-53.056c-22.038-22.59-39.409-49.301-51.124-78.606s-17.541-60.631-17.147-92.187v-290.481c28.681 10.978 59.265 16.132 89.961 15.147 30.696-0.981 60.888-8.073 88.809-20.868 27.921-12.791 53.010-31.023 73.798-53.628 20.789-22.609 36.86-49.135 47.271-78.025 21.615-58.458 20.092-122.957-4.25-180.331h316.425c63.586 1.007 124.177 27.179 168.499 72.777 44.326 45.602 68.766 106.91 67.972 170.496v185.86zM215.766 307.785c-45.909 0-89.937-18.236-122.4-50.697-32.463-32.465-50.7-76.493-50.7-122.402s18.237-89.937 50.7-122.398c32.463-32.465 76.491-50.701 122.4-50.701s89.937 18.236 122.4 50.701c32.463 32.461 50.7 76.489 50.7 122.398s-18.237 89.937-50.7 122.402c-32.463 32.461-76.491 50.697-122.4 50.697zM279.136 101.94h-34.449v-32.751c0.057-4.147-0.718-8.265-2.279-12.109s-3.878-7.339-6.811-10.27c-2.934-2.935-6.426-5.252-10.271-6.814s-7.962-2.334-12.111-2.278c-4.225 0-8.408 0.836-12.306 2.466s-7.433 4.019-10.401 7.027c-2.968 3.008-5.308 6.571-6.886 10.492s-2.362 8.115-2.305 12.339v32.32h-31.898c-7.988 0.917-15.36 4.736-20.713 10.739-5.352 5.999-8.31 13.76-8.31 21.798s2.958 15.799 8.31 21.798c5.352 6.003 12.724 9.822 20.713 10.739h31.898v31.898c-0.518 4.467-0.086 8.994 1.27 13.286 1.356 4.288 3.604 8.243 6.596 11.605 2.993 3.358 6.662 6.046 10.767 7.889 4.105 1.839 8.554 2.795 13.053 2.795s8.947-0.956 13.053-2.795c4.105-1.843 7.775-4.531 10.767-7.889 2.993-3.362 5.24-7.317 6.596-11.605 1.356-4.292 1.789-8.819 1.27-13.286v-32.324h32.323c7.988-0.917 15.36-4.736 20.713-10.735 5.352-6.003 8.31-13.76 8.31-21.803 0-8.038-2.958-15.799-8.31-21.798s-12.724-9.822-20.713-10.735h2.127z" />
<glyph unicode="&#xe933;" glyph-name="add-folder" d="M728.491 696.363h-135.309c-23.957-0.002-47.373 7.159-67.23 20.563-19.861 13.403-35.264 32.438-44.224 54.659l-15.595 38.528c-8.798 22.148-24.034 41.152-43.736 54.559-19.703 13.408-42.971 20.605-66.803 20.662h-91.733c-27.625 0.060-54.991-5.329-80.531-15.859s-48.752-25.994-68.307-45.507c-19.555-19.513-35.070-42.691-45.656-68.208s-16.034-52.871-16.034-80.496v-467.383c0.605-63.829 26.386-124.838 71.738-169.762 45.351-44.919 106.605-70.123 170.438-70.118h432.981c63.834-0.004 125.086 25.199 170.436 70.118 45.355 44.924 71.134 105.933 71.74 169.762v246.306c0.060 31.821-6.161 63.339-18.313 92.748-12.147 29.409-29.986 56.131-52.484 78.631-22.502 22.5-49.22 40.336-78.63 52.486s-60.928 18.372-92.749 18.311zM616.576 329.43h-71.095v-70.178c0.124-4.275-0.597-8.533-2.121-12.531-1.527-3.998-3.823-7.659-6.763-10.765-2.94-3.11-6.464-5.611-10.368-7.36-3.904-1.745-8.119-2.705-12.395-2.825-8.482-0.004-16.627 3.302-22.707 9.212-6.084 5.909-9.621 13.961-9.86 22.434v72.93h-73.385c-8.637 0-16.92 3.43-23.027 9.536-6.107 6.11-9.538 14.391-9.538 23.027 0 8.64 3.431 16.922 9.538 23.027 6.107 6.11 14.39 9.54 23.027 9.54h70.633v70.635c-0.119 4.275 0.602 8.538 2.125 12.535 1.527 3.998 3.823 7.654 6.763 10.765s6.464 5.606 10.368 7.356c3.904 1.745 8.119 2.709 12.395 2.825 4.309 0.252 8.623-0.38 12.676-1.86 4.053-1.476 7.761-3.767 10.897-6.733s5.632-6.537 7.339-10.505c1.702-3.964 2.577-8.235 2.569-12.548v-72.93h73.387c8.64 0 16.922-3.43 23.027-9.536 6.11-6.106 9.54-14.391 9.54-23.027s-3.43-16.922-9.54-23.027c-6.106-6.106-14.387-9.54-23.027-9.54l-0.457-0.457z" />
<glyph unicode="&#xe934;" glyph-name="add-notepad" d="M332.672 830.156c-10.735 0.721-21.506 0.721-32.241 0v40.421c0 9.571 3.802 18.751 10.571 25.519s15.948 10.571 25.519 10.571c9.572 0 18.752-3.802 25.52-10.571s10.571-15.948 10.571-25.519v-40.421h-39.94zM723.891 830.156v40.421c0 9.571-3.802 18.751-10.573 25.519-6.767 6.768-15.945 10.571-25.519 10.571-9.57 0-18.752-3.802-25.519-10.571s-10.569-15.948-10.569-25.519v-40.421h39.936c10.79-0.065 21.564-0.869 32.243-2.406v2.406zM953.907 567.419v-355.608c0.38-34.684-6.123-69.094-19.132-101.248-13.005-32.154-32.265-61.406-56.653-86.063-24.393-24.661-53.431-44.237-85.44-57.596s-66.347-20.237-101.035-20.237h-358.976c-69.599 0.128-136.303 27.866-185.472 77.124s-76.784 116.015-76.784 185.613v358.015c-0.016 63.982 23.359 125.763 65.723 173.711s100.795 78.755 164.292 86.621v-45.233c0-9.572 3.802-18.752 10.571-25.52s15.948-10.571 25.519-10.571c9.572 0 18.752 3.802 25.52 10.571s10.571 15.948 10.571 25.52v48.12h279.1v-48.12c0-9.572 3.802-18.752 10.569-25.52s15.949-10.571 25.519-10.571c9.574 0 18.752 3.802 25.519 10.571 6.771 6.768 10.573 15.948 10.573 25.52v45.233c63.539-7.766 122.027-38.544 164.412-86.513s65.724-109.806 65.604-173.818zM656.521 386.488c0.064 4.484-0.755 8.943-2.415 13.111s-4.122 7.97-7.249 11.187c-3.127 3.217-6.861 5.786-10.982 7.565-4.117 1.775-8.55 2.718-13.035 2.782h-76.996v76.51c0.004 4.548-0.909 9.050-2.692 13.235-1.783 4.183-4.395 7.962-7.676 11.11s-7.168 5.597-11.422 7.203c-4.258 1.605-8.794 2.333-13.338 2.138-9.105-0.376-17.694-4.324-23.91-10.989-6.212-6.665-9.553-15.511-9.293-24.621v-73.621h-74.585c-9.061 0-17.751-3.601-24.158-10.010-6.407-6.404-10.007-15.095-10.007-24.158s3.6-17.749 10.007-24.158c6.407-6.409 15.097-10.005 24.158-10.005h76.991v-76.514c0.252-8.892 3.964-17.335 10.342-23.539 6.379-6.199 14.929-9.668 23.825-9.664 4.489 0.124 8.905 1.135 13.005 2.965 4.096 1.835 7.791 4.459 10.876 7.718 3.085 3.264 5.495 7.1 7.091 11.294 1.6 4.194 2.359 8.666 2.231 13.15v74.108h74.103c4.489-0.128 8.956 0.627 13.15 2.227s8.034 4.011 11.294 7.095c3.264 3.081 5.888 6.78 7.718 10.876 1.835 4.096 2.842 8.516 2.965 13.005z" />
<glyph unicode="&#xe935;" glyph-name="additem" d="M371.36 234.667h-195.36c-38.191 0-74.818 15.172-101.824 42.176s-42.176 63.633-42.176 101.824v384c0 38.191 15.171 74.818 42.176 101.824s63.632 42.176 101.824 42.176h263.518c38.195 0 74.82-15.171 101.824-42.176 27.008-27.005 42.176-63.632 42.176-101.824v-72.48c-56.653-0.633-110.758-23.65-150.502-64.026-39.749-40.377-61.912-94.836-61.655-151.494v-240zM992 474.667v-384c0-38.191-15.172-74.82-42.176-101.824s-63.633-42.176-101.824-42.176h-262.080c-38.191 0-74.82 15.172-101.824 42.176s-42.176 63.633-42.176 101.824v384c0 38.191 15.172 74.818 42.176 101.824s63.633 42.176 101.824 42.176h262.080c38.191 0 74.82-15.171 101.824-42.176s42.176-63.632 42.176-101.824zM842.24 282.667c0 9.549-3.793 18.705-10.543 25.455-6.754 6.754-15.91 10.547-25.459 10.547h-42.24v42.236c0 9.549-3.789 18.705-10.543 25.459-6.75 6.75-15.906 10.543-25.455 10.543s-18.705-3.793-25.455-10.543c-6.754-6.754-10.543-15.91-10.543-25.459v-42.236h-42.24c-9.549 0-18.705-3.793-25.459-10.547-6.75-6.75-10.543-15.906-10.543-25.455s3.793-18.705 10.543-25.455c6.754-6.754 15.91-10.547 25.459-10.547h42.24v-42.236c0-9.549 3.789-18.705 10.543-25.459 6.75-6.75 15.906-10.543 25.455-10.543s18.705 3.793 25.455 10.543c6.754 6.754 10.543 15.91 10.543 25.459v42.236h42.24c9.549 0 18.705 3.793 25.459 10.547 6.75 6.75 10.543 15.906 10.543 25.455z" />
<glyph unicode="&#xe936;" glyph-name="address-book" d="M681.071-32h-478.3c-35.677 0-69.893 13.918-95.121 38.69s-39.401 58.372-39.401 93.406v653.141c0 35.034 14.173 68.633 39.401 93.406s59.444 38.69 95.121 38.69h478.3c35.674 0 69.892-13.917 95.121-38.69 25.225-24.773 39.398-58.372 39.398-93.406v-653.141c0-35.034-14.174-68.634-39.398-93.406-25.229-24.772-59.447-38.69-95.121-38.69zM441.92 656c-18.476 0-36.538-5.38-51.9-15.46s-27.336-24.407-34.407-41.169c-7.070-16.762-8.92-35.207-5.316-53.001s12.502-34.14 25.566-46.97c13.065-12.83 29.71-21.564 47.831-25.105 18.122-3.537 36.904-1.724 53.975 5.222 17.071 6.942 31.659 18.701 41.924 33.784 10.266 15.086 15.744 32.821 15.744 50.964 0 24.329-9.843 47.662-27.362 64.865s-41.28 26.868-66.057 26.868zM594.658 243.2c7.731-0.457 15.458 0.977 22.485 4.181 7.023 3.204 13.129 8.073 17.762 14.17s7.65 13.227 8.777 20.753c1.126 7.526 0.333 15.211-2.317 22.357-17.139 37.491-45.265 69.116-80.789 90.846-35.52 21.73-76.83 32.576-118.656 31.159-41.527 1.122-82.468-9.813-117.696-31.433-35.228-21.623-63.178-52.966-80.349-90.116-12.144-29.811 12.611-61.918 71.465-61.918h279.319zM909.009 472.534h-46.711v-183.467h46.711c12.386 0 24.269 4.834 33.028 13.436s13.679 20.267 13.679 32.431v91.733c0 12.164-4.919 23.829-13.679 32.431s-20.642 13.436-33.028 13.436zM909.009 747.734h-46.711v-183.467h46.711c12.386 0 24.269 4.832 33.028 13.434s13.679 20.268 13.679 32.433v91.733c0 12.165-4.919 23.831-13.679 32.433s-20.642 13.434-33.028 13.434z" />
<glyph unicode="&#xe937;" glyph-name="airplane-square" d="M967.923 613.802c-1.079 72.054-30.464 140.79-81.805 191.359-51.337 50.569-120.512 78.91-192.572 78.902h-371.324c-71.814-1.436-140.201-30.977-190.476-82.278s-78.428-120.271-78.413-192.099v-369.494c0.962-72.132 30.293-140.988 81.645-191.654s120.592-79.070 192.732-79.066h371.78c72.213 0.845 141.184 30.123 191.949 81.489 50.765 51.362 79.232 120.67 79.228 192.887l-2.743 369.953zM821.589 370.978c-0.064-5.082-1.37-10.069-3.806-14.528s-5.926-8.252-10.167-11.051c-4.241-2.799-9.105-4.514-14.161-4.996-5.060-0.482-10.159 0.277-14.852 2.223l-166.912 72.708c-3.187 1.357-6.66 1.903-10.108 1.596-3.452-0.311-6.771-1.468-9.664-3.366-2.897-1.899-5.278-4.484-6.933-7.526-1.66-3.042-2.539-6.447-2.564-9.907v-114.782c-0.017-3.153 0.67-6.268 2.014-9.118 1.348-2.846 3.315-5.359 5.764-7.347l74.078-60.361c3.358-2.807 6.071-6.302 7.966-10.244s2.918-8.247 3.012-12.621v-68.595c-0.371-5.146-2.074-10.103-4.941-14.391s-6.801-7.753-11.413-10.061c-4.617-2.308-9.749-3.371-14.899-3.093s-10.138 1.89-14.477 4.681l-100.147 81.399c-5.082 4.203-11.469 6.498-18.065 6.498-6.592 0-12.979-2.295-18.061-6.498l-101.521-81.399c-4.352-3.396-9.565-5.517-15.054-6.118-5.489-0.606-11.037 0.333-16.023 2.709-4.986 2.372-9.211 6.089-12.203 10.731s-4.632 10.022-4.736 15.543v68.139c-0.062 4.42 0.848 8.798 2.665 12.83s4.498 7.612 7.852 10.492l80.485 65.391c2.445 1.988 4.416 4.501 5.76 7.347 1.344 2.85 2.035 5.965 2.014 9.118v111.578c-0.026 3.465-0.905 6.869-2.56 9.911-1.655 3.038-4.041 5.623-6.933 7.526-2.897 1.899-6.217 3.055-9.665 3.362-3.45 0.311-6.922-0.235-10.109-1.591l-171.028-74.539c-4.695-1.946-9.794-2.705-14.852-2.223s-9.92 2.197-14.161 4.996c-4.241 2.799-7.732 6.592-10.168 11.051s-3.742 9.446-3.804 14.528v72.252c-0.144 6.191 1.564 12.284 4.904 17.498s8.162 9.314 13.845 11.772l212.185 91.457c3.725 1.625 6.886 4.316 9.084 7.734s3.332 7.41 3.264 11.473v111.123c-0.030 15.059 5.888 29.52 16.461 40.242l21.039 21.493c4.258 4.355 9.344 7.816 14.959 10.179s11.644 3.58 17.737 3.58c6.093 0 12.122-1.217 17.737-3.58s10.701-5.824 14.959-10.179l21.035-21.493c10.577-10.722 16.491-25.183 16.465-40.242v-112.952c-0.013-4.050 1.148-8.017 3.341-11.424 2.189-3.407 5.316-6.109 9.003-7.782l208.073-91.458c5.538-2.398 10.261-6.353 13.589-11.388s5.12-10.931 5.158-16.964l-0.457-71.339z" />
<glyph unicode="&#xe938;" glyph-name="airplane" d="M911.497 487.881l-284.77 123.856c-5.111 2.251-9.463 5.926-12.54 10.584-3.081 4.659-4.753 10.105-4.817 15.688v154.818c0.226 10.416-1.651 20.772-5.521 30.445-3.866 9.674-9.651 18.467-16.998 25.852l-29.086 28.148c-5.811 5.929-12.745 10.64-20.399 13.856s-15.872 4.872-24.171 4.872c-8.303 0-16.521-1.656-24.171-4.872-7.654-3.216-14.588-7.927-20.399-13.856l-28.147-28.148c-7.518-7.306-13.474-16.064-17.508-25.741-4.032-9.677-6.057-20.073-5.951-30.556v-152.003c-0.038-5.47-1.593-10.822-4.492-15.46s-7.028-8.381-11.928-10.813l-290.4-126.671c-7.443-3.29-13.761-8.683-18.179-15.518s-6.741-14.814-6.686-22.95v-98.991c-0.047-6.972 1.653-13.85 4.945-19.998s8.073-11.371 13.905-15.198c5.832-3.823 12.529-6.127 19.48-6.699s13.935 0.606 20.313 3.426l234.572 101.803c4.371 1.967 9.166 2.799 13.943 2.432 4.778-0.371 9.386-1.937 13.402-4.553s7.311-6.195 9.583-10.415c2.272-4.22 3.447-8.943 3.419-13.734v-152.474c0.055-4.331-0.89-8.614-2.761-12.518-1.871-3.908-4.619-7.33-8.029-10.001l-110.718-89.604c-4.642-3.827-8.39-8.627-10.984-14.054-2.593-5.431-3.968-11.362-4.029-17.378v-93.828c0.010-7.663 2.201-15.164 6.317-21.623s9.986-11.618 16.925-14.865c6.939-3.247 14.659-4.454 22.257-3.477 7.598 0.981 14.761 4.1 20.651 9.003l136.054 111.185c7.023 5.717 15.804 8.836 24.862 8.836s17.839-3.119 24.866-8.836l136.521-111.185c5.897-4.762 13.013-7.761 20.54-8.661 7.522-0.9 15.147 0.333 21.999 3.563 6.857 3.234 12.659 8.329 16.755 14.707 4.092 6.374 6.306 13.777 6.387 21.355v93.828c-0.060 6.016-1.438 11.947-4.032 17.378-2.59 5.427-6.34 10.227-10.982 14.054l-101.333 83.038c-3.401 2.573-6.148 5.909-8.026 9.741-1.873 3.827-2.82 8.047-2.765 12.309v156.693c0.013 4.787 1.207 9.502 3.477 13.717s5.547 7.804 9.54 10.449c3.989 2.645 8.572 4.267 13.342 4.715 4.766 0.448 9.57-0.286 13.986-2.138l228.002-99.46c6.379-2.82 13.363-3.998 20.314-3.426s13.649 2.876 19.482 6.699c5.833 3.827 10.611 9.050 13.905 15.198s4.992 13.026 4.945 19.998v98.991c0.055 8.137-2.27 16.115-6.686 22.95-4.42 6.835-10.735 12.228-18.18 15.518v0z" />
<glyph unicode="&#xe939;" glyph-name="airpod" d="M753.869 547.296h193.557v-381.152c0.060-26.035-5.026-51.831-14.963-75.895-9.933-24.068-24.529-45.935-42.94-64.35-18.411-18.411-40.277-33.003-64.346-42.94s-49.86-15.019-75.895-14.959h-475.18c-26.038-0.060-51.831 5.022-75.898 14.959s-45.935 24.529-64.346 42.94c-18.412 18.415-33.004 40.282-42.941 64.35-9.936 24.064-15.020 49.86-14.959 75.895v381.152h193.557c7.46-21.809 21.551-40.74 40.303-54.146s41.223-20.612 64.273-20.617h275.201c23.049 0.004 45.521 7.211 64.273 20.617s32.841 32.337 40.303 54.146zM749.282 885.333h-475.18c-26.038 0.061-51.831-5.024-75.898-14.96s-45.935-24.529-64.346-42.941c-18.412-18.411-33.004-40.279-42.941-64.346s-15.020-49.86-14.959-75.898v-71.093h193.557c7.147 22.152 21.104 41.482 39.882 55.236s41.418 21.23 64.694 21.361h275.201c23.351-0.035 46.097-7.465 64.964-21.226 18.871-13.761 32.896-33.145 40.068-55.371h193.101v71.093c0.060 26.038-5.026 51.831-14.963 75.898-9.933 24.067-24.529 45.935-42.94 64.346s-40.277 33.004-64.346 42.941c-24.068 9.936-49.86 15.020-75.895 14.96z" />
<glyph unicode="&#xe93a;" glyph-name="android" d="M762.428 473.272v-293.769c-0.132-27.571-11.179-53.965-30.716-73.412-19.541-19.443-45.99-30.362-73.557-30.362h-292.77c-27.569 0-54.016 10.918-73.556 30.362-19.541 19.447-30.585 45.841-30.718 73.412v293.769c0.133 27.571 11.177 53.964 30.718 73.411s45.988 30.364 73.556 30.364h292.77c27.567 0 54.016-10.917 73.557-30.364 19.537-19.447 30.583-45.84 30.716-73.411zM160.847 243.17v200.525c0 13.295-5.282 26.048-14.683 35.447-9.402 9.404-22.153 14.686-35.449 14.686s-26.047-5.282-35.448-14.686c-9.402-9.399-14.683-22.153-14.683-35.447v-200.525c0-13.299 5.282-26.048 14.683-35.452 9.402-9.399 22.153-14.682 35.448-14.682s26.047 5.282 35.449 14.682c9.402 9.404 14.683 22.153 14.683 35.452zM365.385 75.729v-100.262c0-13.299 5.282-26.048 14.683-35.452 9.401-9.399 22.153-14.682 35.448-14.682s26.045 5.282 35.449 14.682c9.399 9.404 14.682 22.153 14.682 35.452v100.262h-100.262zM658.155 75.729h-96.252v-100.262c0-13.299 5.278-26.048 14.682-35.452 9.399-9.399 22.153-14.682 35.447-14.682s26.048 5.282 35.447 14.682c9.404 9.404 14.686 22.153 14.686 35.452v100.262h-4.011zM962.957 243.17v200.525c0 13.295-5.282 26.048-14.686 35.447-9.399 9.404-22.153 14.686-35.447 14.686s-26.048-5.282-35.447-14.686c-9.404-9.399-14.686-22.153-14.686-35.447v-200.525c0-13.299 5.282-26.048 14.686-35.452 9.399-9.399 22.153-14.682 35.447-14.682s26.048 5.282 35.447 14.682c9.404 9.404 14.686 22.153 14.686 35.452zM603.511 647.732c23.561-0.42 46.362 8.344 63.578 24.437s27.494 38.252 28.663 61.789c-0.393 25.917-5.892 51.501-16.188 75.288-10.3 23.787-25.186 45.308-43.814 63.331s-40.631 32.192-64.742 41.697c-24.115 9.505-49.869 14.159-75.785 13.694-25.911 0.465-51.665-4.189-75.779-13.694s-46.115-23.675-64.743-41.697c-18.628-18.023-33.517-39.544-43.813-63.331s-15.798-49.371-16.189-75.288c1.168-23.537 11.447-45.696 28.663-61.789s40.017-24.857 63.579-24.437h216.57z" />
<glyph unicode="&#xe93b;" glyph-name="angular" d="M512.815 610.733l94.029-196.516h-183.354l89.325 196.516zM919.479 629.068l-35.26-401.962c-2.355-25.293-10.709-49.66-24.363-71.083-13.653-21.419-32.218-39.279-54.148-52.092l-212.971-125.056c-24.444-14.114-52.169-21.542-80.393-21.542s-55.949 7.428-80.393 21.542l-213.44 125.056c-21.645 13.005-39.91 30.942-53.309 52.348s-21.551 45.67-23.793 70.827l-36.2 401.962c-3.178 34.486 5.030 69.063 23.37 98.441s45.8 51.936 78.179 64.225l248.699 94.027c36.698 13.653 77.077 13.653 113.775 0l248.7-94.027c32.239-12.484 59.567-35.085 77.875-64.414s26.615-63.803 23.671-98.252zM763.866 246.379l-219.55 463.082c-2.573 6.37-7.095 11.76-12.928 15.393-5.828 3.633-12.663 5.322-19.511 4.823-6.699 0.001-13.248-1.957-18.842-5.633-5.598-3.676-9.997-8.908-12.659-15.053l-144.33-316.398-66.759-146.684c-1.955-4.254-3.044-8.853-3.203-13.534-0.158-4.676 0.617-9.34 2.279-13.717s4.181-8.38 7.407-11.772c3.226-3.392 7.095-6.11 11.382-7.991 4.524-2.249 9.522-3.375 14.574-3.29 6.75 0.026 13.35 1.988 19.017 5.658 5.667 3.665 10.162 8.883 12.952 15.027l57.826 126.938h248.231l60.646-127.407c1.694-4.591 4.326-8.781 7.727-12.301 3.405-3.52 7.501-6.293 12.036-8.145 4.531-1.847 9.399-2.735 14.293-2.598s9.707 1.289 14.127 3.388c4.425 2.095 8.363 5.090 11.567 8.794 3.2 3.703 5.598 8.030 7.036 12.71s1.886 9.609 1.314 14.473c-0.572 4.86-2.15 9.549-4.634 13.769v0.469z" />
<glyph unicode="&#xe93c;" glyph-name="apple" d="M680.542 772.545c-28.002-35.513-66.812-61.329-110.784-73.692-5.739-1.702-11.81-2.021-17.698-0.928-5.892 1.093-11.426 3.564-16.137 7.205s-8.452 8.343-10.918 13.709c-2.466 5.365-3.575 11.235-3.238 17.111 5.201 43.103 22.921 83.826 51.055 117.306 28.079 32.845 64.55 57.76 105.677 72.188 6.217 2.392 12.966 3.123 19.567 2.119 6.596-1.004 12.804-3.706 17.993-7.833s9.173-9.53 11.541-15.659c2.368-6.129 3.042-12.766 1.95-19.234-6.959-41.102-24.533-79.764-51.051-112.293h2.044zM858.202 521.892c5.308 5.059 9.429 11.19 12.087 17.969 2.654 6.778 3.776 14.042 3.294 21.289-0.486 7.247-2.573 14.304-6.106 20.682-3.537 6.379-8.444 11.926-14.379 16.259-35.46 28.603-78.865 46.070-124.57 50.13-69.431 4.512-125.589-40.104-192.465-40.104-66.88 0-108.233 40.104-182.257 40.104-40.808-2.507-80.349-14.897-115.091-36.067s-63.606-50.457-84.012-85.249c-70.452-104.271-58.199-300.785 53.605-472.232 40.331-60.655 93.936-129.335 164.388-129.335 62.282 0 79.643 39.603 164.387 39.603 84.749 0 102.106-40.102 162.859-39.603 70.451 0 126.609 76.198 166.938 136.858 15.629 22.737 29.619 46.524 41.865 71.185 4.864 10.88 5.632 23.1 2.176 34.483-3.46 11.388-10.927 21.197-21.065 27.678-26.88 17.203-49.459 40.132-66.069 67.085-16.606 26.957-26.807 57.242-29.85 88.602s1.156 62.993 12.284 92.54c11.127 29.547 28.894 56.252 51.981 78.124z" />
<glyph unicode="&#xe93d;" glyph-name="archive-tick" d="M705.276 885.334h-386.99c-53.823-0.119-105.406-21.311-143.465-58.939s-59.493-88.628-59.613-141.843v-635.736c0.116-14.157 3.972-28.036 11.186-40.265s17.537-22.379 29.943-29.449c12.407-7.066 26.466-10.803 40.785-10.846 14.319-0.038 28.399 3.627 40.845 10.624l232.739 131.75c12.506 7.083 26.662 10.812 41.071 10.812 14.413 0 28.57-3.729 41.075-10.812l232.738-131.75c12.459-7.108 26.586-10.863 40.973-10.88 14.383-0.017 28.523 3.699 40.998 10.782 12.476 7.078 22.852 17.276 30.089 29.568 7.241 12.288 11.085 26.244 11.157 40.465v635.736c-0.119 53.292-21.619 104.361-59.776 142.002s-89.856 58.78-143.757 58.78zM676.979 548.29l-182.541-180.478c-6.519-6.191-15.151-9.732-24.188-9.929-8.713 0.030-17.067 3.43-23.275 9.476l-72.102 68.13c-4.974 6.315-7.524 14.165-7.198 22.161s3.507 15.616 8.978 21.513c5.471 5.897 12.879 9.685 20.908 10.692 8.029 1.011 16.159-0.828 22.948-5.184l47.915-45.12 159.727 156.565c2.897 4.177 6.707 7.657 11.149 10.183 4.437 2.527 9.395 4.036 14.502 4.416 5.111 0.38 10.24-0.378 15.010-2.22 4.774-1.841 9.067-4.718 12.565-8.419s6.11-8.13 7.646-12.962c1.536-4.832 1.954-9.943 1.229-14.957-0.73-5.013-2.59-9.801-5.436-14.010-2.85-4.209-6.622-7.732-11.029-10.309l3.191 0.451z" />
<glyph unicode="&#xe93e;" glyph-name="archive" d="M846.925 514.418h-670.393c-15.264 0-30.377 3.014-44.474 8.868s-26.898 14.435-37.67 25.25c-10.772 10.814-19.303 23.649-25.103 37.768s-8.755 29.244-8.696 44.508v135.342c0.823 30.199 13.401 58.885 35.056 79.95s50.676 32.846 80.887 32.835h670.393c30.362 0.006 59.516-11.9 81.195-33.158 21.683-21.258 34.159-50.172 34.748-80.529v-135.342c-0.119-30.672-12.386-60.047-34.116-81.693-21.734-21.646-51.153-33.799-81.826-33.799zM846.925 514.418v0zM849.63 447.198v-370.385c0-27.162-10.786-53.21-29.995-72.414-19.204-19.204-45.252-29.995-72.414-29.995h-470.988c-27.16 0-53.208 10.79-72.414 29.995s-29.995 45.252-29.995 72.414v370.385h675.805zM647.070 288.849c0 8.973-3.563 17.579-9.911 23.923-6.345 6.345-14.95 9.911-23.923 9.911h-163.763c-8.973 0-17.579-3.567-23.926-9.911-6.345-6.345-9.91-14.95-9.91-23.923s3.565-17.583 9.91-23.927c6.348-6.345 14.953-9.907 23.926-9.907h161.958c4.578-0.183 9.143 0.555 13.431 2.167s8.209 4.070 11.533 7.223c3.319 3.157 5.978 6.942 7.812 11.14 1.83 4.198 2.807 8.721 2.863 13.303z" />
<glyph unicode="&#xe93f;" glyph-name="arrow-circle-left" d="M780.348 823.469h-404.218c-26.696-0.427-53.047-6.109-77.547-16.721s-46.669-25.947-65.242-45.129c-18.572-19.182-33.184-41.834-43.001-66.664s-14.646-51.35-14.212-78.046v-234.193l-73.537 75.878c-6.587 6.579-15.516 10.274-24.825 10.274s-18.238-3.695-24.825-10.274c-6.579-6.588-10.274-15.518-10.274-24.828 0-9.306 3.695-18.236 10.274-24.823l135.365-140.514c3.241-3.452 7.162-6.187 11.516-8.043s9.045-2.786 13.777-2.731c4.728-0.026 9.411 0.917 13.76 2.769s8.274 4.578 11.533 8.004l134.896 140.514c6.467 6.647 10.084 15.552 10.084 24.823 0 9.276-3.618 18.18-10.084 24.828-6.586 6.579-15.515 10.274-24.825 10.274s-18.238-3.695-24.824-10.274l-80.095-81.033v239.347c-0.501 35.574 13.12 69.895 37.879 95.444s58.636 40.241 94.207 40.858h404.218c35.49-0.739 69.248-15.485 93.905-41.020 24.661-25.536 38.217-59.788 37.713-95.281v-417.335c0.503-35.447-13.069-69.653-37.739-95.113-24.674-25.459-58.428-40.102-93.879-40.721h-404.218c-26.877 0.068-53.087 8.367-75.11 23.774s-38.799 37.184-48.077 62.409c-1.557 4.215-3.941 8.077-7.011 11.354-3.069 3.281-6.764 5.914-10.865 7.748-4.102 1.83-8.527 2.829-13.019 2.927s-8.957-0.704-13.134-2.355c-4.354-1.792-8.308-4.433-11.634-7.761-3.327-3.332-5.959-7.292-7.745-11.648s-2.69-9.024-2.66-13.734c0.030-4.706 0.994-9.361 2.835-13.696 14.039-38.379 39.55-71.509 73.069-94.886 33.519-23.381 73.42-35.874 114.287-35.793h404.22c26.778 0.427 53.205 6.14 77.769 16.811 24.559 10.671 46.771 26.091 65.357 45.372s33.178 42.044 42.94 66.982c9.758 24.939 14.498 51.558 13.939 78.332v417.335c0.371 26.758-4.531 53.326-14.43 78.188s-24.597 47.532-43.255 66.713c-18.658 19.181-40.913 34.499-65.493 45.079s-51.004 16.213-77.764 16.58z" />
<glyph unicode="&#xe940;" glyph-name="arrow-circle-right" d="M922.347 475.414l-73.775-77.065v234.954c0.755 54.054-19.934 106.206-57.54 145.043-37.602 38.837-89.062 61.197-143.113 62.186h-405.528c-53.761-1.111-104.908-23.41-142.309-62.044s-58.032-90.476-57.401-144.245v-418.686c-0.258-53.525 20.538-105.007 57.9-143.339 37.362-38.327 88.296-60.433 141.811-61.542h405.528c41.003-0.081 81.033 12.454 114.658 35.908 33.63 23.458 59.221 56.691 73.306 95.198 1.847 4.348 2.816 9.015 2.846 13.739s-0.879 9.408-2.671 13.777c-1.792 4.369-4.433 8.341-7.77 11.686-3.337 3.341-7.305 5.99-11.669 7.787-4.194 1.655-8.674 2.458-13.18 2.359s-8.947-1.097-13.060-2.935c-4.113-1.835-7.821-4.48-10.901-7.77-3.076-3.29-5.47-7.164-7.031-11.388-9.28-25.233-26.039-47.031-48.038-62.481-22.003-15.45-48.192-23.817-75.076-23.983h-406.94c-17.649 0.243-35.078 3.964-51.289 10.944s-30.889 17.088-43.194 29.743c-12.305 12.655-21.998 27.61-28.523 44.011s-9.756 33.924-9.507 51.575v415.396c-0.503 35.689 13.163 70.122 38.001 95.753s58.825 40.371 94.512 40.989h405.528c35.605-0.741 69.474-15.535 94.212-41.153s38.336-59.981 37.833-95.59v-240.122l-79.415 81.293c-6.601 4.813-14.665 7.181-22.818 6.703s-15.889-3.772-21.884-9.323c-5.995-5.551-9.873-13.009-10.978-21.103-1.101-8.094 0.64-16.316 4.932-23.266l135.334-140.975c3.251-3.456 7.185-6.204 11.55-8.064 4.369-1.86 9.075-2.795 13.824-2.743 4.745-0.021 9.442 0.922 13.803 2.782 4.365 1.86 8.303 4.591 11.571 8.026l135.334 140.975c6.485 6.665 10.116 15.603 10.116 24.905s-3.631 18.236-10.116 24.905c-6.925 5.952-15.889 8.986-25.007 8.461-9.114-0.529-17.673-4.57-23.863-11.281z" />
<glyph unicode="&#xe941;" glyph-name="arrow-down-left" d="M824.465 739.146c18.556-18.555 18.556-48.639 0-67.194l-476.659-476.662h360.431c26.24 0 47.514-21.274 47.514-47.514s-21.274-47.514-47.514-47.514h-475.139c-26.241 0-47.514 21.274-47.514 47.514v475.14c0 26.241 21.273 47.514 47.514 47.514s47.514-21.273 47.514-47.514v-360.431l476.663 476.66c18.556 18.556 48.64 18.556 67.191 0z" />
<glyph unicode="&#xe942;" glyph-name="arrow-down-refraction" d="M75.778 746.334c23.384 11.183 51.407 1.293 62.59-22.091l207.067-432.957 273.236 255.019c9.685 9.039 22.737 13.564 35.938 12.459s25.318-7.737 33.365-18.26l193.118-252.537v74.692c0 25.924 21.013 46.933 46.933 46.933 25.924 0 46.933-21.009 46.933-46.933v-213.333c0-25.92-21.009-46.933-46.933-46.933h-234.667c-25.92 0-46.933 21.013-46.933 46.933 0 25.924 21.013 46.933 46.933 46.933h139.695l-188.19 246.097-282.146-263.339c-10.927-10.197-26.057-14.583-40.744-11.806s-27.171 12.382-33.62 25.865l-234.667 490.668c-11.184 23.384-1.293 51.407 22.090 62.59z" />
<glyph unicode="&#xe943;" glyph-name="arrow-down-right" d="M199.541 739.146c18.555 18.556 48.64 18.556 67.195 0l476.662-476.66v360.431c0 26.241 21.274 47.514 47.514 47.514s47.514-21.273 47.514-47.514v-475.14c0-26.24-21.274-47.514-47.514-47.514h-475.14c-26.241 0-47.514 21.274-47.514 47.514s21.273 47.514 47.514 47.514h360.431l-476.661 476.662c-18.555 18.555-18.555 48.639 0 67.194z" />
<glyph unicode="&#xe944;" glyph-name="arrow-down" d="M511.987 868.594c-26.24 0-47.514-21.273-47.514-47.514v-674.102l-254.862 254.865c-18.556 18.556-48.64 18.556-67.195 0s-18.555-48.64 0-67.196l335.975-335.974c18.556-18.556 48.64-18.556 67.196 0l335.974 335.974c18.551 18.556 18.551 48.64 0 67.196-18.556 18.556-48.64 18.556-67.196 0l-254.865-254.865v674.102c0 26.241-21.274 47.514-47.514 47.514z" />
<glyph unicode="&#xe945;" glyph-name="arrow-left" d="M953.92 426.68c0-26.244-21.274-47.514-47.514-47.514h-674.1l254.862-254.865c18.556-18.556 18.556-48.64 0-67.196-18.556-18.551-48.64-18.551-67.194 0l-335.974 335.974c-18.555 18.556-18.555 48.64 0 67.196l335.974 335.975c18.554 18.555 48.638 18.555 67.194 0s18.556-48.64 0-67.195l-254.862-254.862h674.1c26.24 0 47.514-21.274 47.514-47.514z" />
<glyph unicode="&#xe946;" glyph-name="arrow-mix" d="M819.503 819.504c-16.661 16.662-43.678 16.662-60.339 0s-16.661-43.677 0-60.34l55.164-55.163h-152.994c-12.727 0-24.789-5.681-32.896-15.493l-171.776-207.939-190.424 209.466c-8.086 8.895-19.55 13.966-31.571 13.966h-128c-23.564 0-42.667-19.103-42.667-42.667s19.103-42.667 42.667-42.667h109.126l185.966-204.561-165.854-200.772h-129.238c-23.564 0-42.667-19.102-42.667-42.667s19.103-42.667 42.667-42.667h149.333c12.727 0 24.789 5.683 32.894 15.492l392.535 475.174h132.898l-55.164-55.163c-16.661-16.663-16.661-43.677 0-60.34s43.678-16.661 60.339 0l128 128c16.661 16.663 16.661 43.677 0 60.34l-128 128zM537.152 345.959c17.894 15.339 44.83 13.265 60.164-4.625l126.315-127.996h90.701l-33.83 33.83c-16.661 16.661-16.661 43.678 0 60.339s43.678 16.661 60.339 0l106.667-106.667c16.661-16.661 16.661-43.678 0-60.339l-106.667-106.667c-16.661-16.661-43.678-16.661-60.339 0s-16.661 43.678 0 60.339l33.83 33.83h-110.327c-12.454 0-24.29 5.444-32.393 14.899l-139.085 142.895c-15.334 17.89-13.265 44.826 4.625 60.16z" />
<glyph unicode="&#xe947;" glyph-name="arrow-right-left" d="M729.66 857.649c-14.161 14.163-37.124 14.163-51.285 0-14.165-14.163-14.165-37.126 0-51.289l130.086-130.089h-680.444c-20.029 0-36.267-16.237-36.267-36.267s16.237-36.267 36.267-36.267h680.444l-130.086-130.091c-14.165-14.161-14.165-37.124 0-51.285 14.161-14.165 37.124-14.165 51.285 0l192 191.998c14.165 14.163 14.165 37.126 0 51.289l-192 192zM294.372 430.981c14.163 14.165 37.126 14.165 51.289 0 14.163-14.161 14.163-37.124 0-51.285l-130.089-130.091h680.445c20.028 0 36.267-16.239 36.267-36.267s-16.239-36.267-36.267-36.267h-680.445l130.089-130.091c14.163-14.161 14.163-37.124 0-51.285-14.163-14.165-37.126-14.165-51.289 0l-192 192c-14.163 14.161-14.163 37.124 0 51.285l192 192z" />
<glyph unicode="&#xe948;" glyph-name="arrow-right" d="M70.083 426.68c0 26.24 21.273 47.514 47.514 47.514h674.1l-254.861 254.862c-18.556 18.556-18.556 48.64 0 67.195s48.636 18.555 67.191 0l335.974-335.975c18.556-18.556 18.556-48.64 0-67.196l-335.974-335.974c-18.556-18.551-48.636-18.551-67.191 0-18.556 18.556-18.556 48.64 0 67.196l254.861 254.865h-674.1c-26.241 0-47.514 21.274-47.514 47.514z" />
<glyph unicode="&#xe949;" glyph-name="arrow-two-diagonals" d="M181.333 712.079l285.41-285.412-285.41-285.41v157.41c0 17.673-14.327 32-32 32s-32-14.327-32-32v-234.667c0-17.673 14.327-32 32-32h234.667c17.673 0 32 14.327 32 32s-14.327 32-32 32h-157.412l285.412 285.41 285.41-285.41h-157.41c-17.673 0-32-14.327-32-32s14.327-32 32-32h234.667c17.673 0 32 14.327 32 32v234.667c0 17.673-14.327 32-32 32s-32-14.327-32-32v-157.41l-285.41 285.41 285.41 285.412v-157.412c0-17.673 14.327-32 32-32s32 14.327 32 32v234.667c0 17.673-14.327 32-32 32h-234.667c-17.673 0-32-14.327-32-32s14.327-32 32-32h157.41l-285.41-285.41-285.412 285.41h157.412c17.673 0 32 14.327 32 32s-14.327 32-32 32h-234.667c-17.673 0-32-14.327-32-32v-234.667c0-17.673 14.327-32 32-32s32 14.327 32 32v157.412z" />
<glyph unicode="&#xe94a;" glyph-name="arrow-up-down" d="M81.039 644.318c-14.163-14.163-14.163-37.126 0-51.289s37.126-14.163 51.289 0l130.089 130.089v-680.447c0-20.028 16.237-36.267 36.267-36.267s36.267 16.239 36.267 36.267v680.447l130.091-130.089c14.161-14.163 37.124-14.163 51.285 0 14.165 14.163 14.165 37.126 0 51.289l-191.999 192c-14.163 14.163-37.126 14.163-51.289 0l-192-192zM507.708 209.029c-14.165 14.165-14.165 37.124 0 51.29 14.161 14.161 37.124 14.161 51.285 0l130.091-130.091v680.446c0 20.029 16.235 36.267 36.267 36.267 20.028 0 36.267-16.237 36.267-36.267v-680.446l130.086 130.091c14.165 14.161 37.129 14.161 51.29 0 14.165-14.165 14.165-37.124 0-51.29l-192-192c-14.161-14.161-37.124-14.161-51.29 0l-191.996 192z" />
<glyph unicode="&#xe94b;" glyph-name="arrow-up-left" d="M824.465 114.181c-18.556-18.556-48.636-18.556-67.191 0l-476.663 476.66v-360.431c0-26.24-21.273-47.514-47.514-47.514s-47.514 21.274-47.514 47.514v475.14c0 26.241 21.273 47.514 47.514 47.514h475.139c26.24 0 47.514-21.273 47.514-47.514s-21.274-47.514-47.514-47.514h-360.431l476.659-476.663c18.556-18.551 18.556-48.636 0-67.191z" />
<glyph unicode="&#xe94c;" glyph-name="arrow-up-refraction" d="M75.778 106.996c23.384-11.183 51.407-1.293 62.59 22.093l207.067 432.959 273.236-255.022c9.685-9.037 22.737-13.564 35.938-12.459s25.318 7.74 33.365 18.261l193.118 252.539v-74.696c0-25.92 21.013-46.933 46.933-46.933 25.924 0 46.933 21.013 46.933 46.933v213.333c0 25.92-21.009 46.933-46.933 46.933h-234.667c-25.92 0-46.933-21.013-46.933-46.933s21.013-46.933 46.933-46.933h139.695l-188.19-246.093-282.146 263.337c-10.927 10.198-26.057 14.582-40.744 11.805s-27.171-12.383-33.62-25.867l-234.667-490.667c-11.184-23.386-1.293-51.405 22.090-62.592z" />
<glyph unicode="&#xe94d;" glyph-name="arrow-up-right" d="M199.5 114.181c18.555-18.556 48.64-18.556 67.195 0l476.661 476.66v-360.431c0-26.24 21.274-47.514 47.514-47.514s47.514 21.274 47.514 47.514v475.14c0 26.241-21.274 47.514-47.514 47.514h-475.139c-26.241 0-47.514-21.273-47.514-47.514s21.273-47.514 47.514-47.514h360.43l-476.66-476.663c-18.555-18.551-18.555-48.636 0-67.191z" />
<glyph unicode="&#xe94e;" glyph-name="arrow-up" d="M511.987-15.244c-26.24 0-47.514 21.274-47.514 47.514v674.102l-254.862-254.864c-18.556-18.556-48.64-18.556-67.195 0s-18.555 48.64 0 67.196l335.975 335.974c18.556 18.555 48.64 18.555 67.196 0l335.974-335.974c18.551-18.556 18.551-48.64 0-67.196-18.556-18.556-48.64-18.556-67.196 0l-254.865 254.864v-674.102c0-26.24-21.274-47.514-47.514-47.514z" />
<glyph unicode="&#xe94f;" glyph-name="arrow-zigzag" d="M746.863 315.456c-3.136 3.136-6.857 5.623-10.953 7.317-4.092 1.698-8.482 2.569-12.915 2.569s-8.819-0.87-12.915-2.569c-4.096-1.694-7.817-4.181-10.948-7.317-3.136-3.132-5.619-6.852-7.317-10.948s-2.569-8.482-2.569-12.915c0-4.433 0.87-8.819 2.569-12.915s4.181-7.817 7.317-10.948l74.441-74.445h-468.986c-13.932-0.913-27.903 1.041-41.048 5.743s-25.186 12.053-35.377 21.598c-10.19 9.545-18.313 21.077-23.867 33.886s-8.419 26.624-8.419 40.585c0 13.961 2.865 27.776 8.419 40.585s13.677 24.341 23.867 33.886c10.191 9.545 22.231 16.896 35.377 21.598s27.117 6.656 41.048 5.743h420.38c22.255 0.375 44.22 5.129 64.636 13.99s38.891 21.658 54.362 37.658c15.471 16 27.639 34.893 35.81 55.595 8.171 20.704 12.186 42.815 11.81 65.070-0.371 22.255-5.124 44.218-13.986 64.635s-21.658 38.89-37.662 54.362c-16 15.472-34.889 27.641-55.595 35.812-20.702 8.171-42.812 12.184-65.067 11.811h-470.739l74.442 74.442c6.388 6.33 9.999 14.937 10.040 23.93s-3.492 17.632-9.821 24.020c-6.329 6.388-14.937 9.999-23.929 10.040s-17.633-3.492-24.020-9.821l-131.369-131.369c-6.297-6.456-9.898-15.068-10.071-24.084 0.259-8.998 3.848-17.58 10.071-24.084l131.369-131.369c3.102-3.191 6.812-5.728 10.911-7.46s8.504-2.625 12.954-2.625c4.45 0 8.855 0.893 12.954 2.625s7.81 4.269 10.911 7.46c3.191 3.101 5.728 6.812 7.46 10.911s2.625 8.504 2.625 12.954c0 4.45-0.893 8.855-2.625 12.954s-4.269 7.809-7.46 10.911l-74.442 73.566h470.739c27.059 0 53.009-10.749 72.145-29.884s29.884-45.086 29.884-72.146c0-27.060-10.748-53.012-29.884-72.146-19.136-19.136-45.086-29.884-72.145-29.884h-420.381c-44.945-0.755-87.75-19.332-118.997-51.648s-48.378-75.721-47.623-120.666c0.755-44.945 19.333-87.748 51.648-118.997 32.315-31.245 75.719-48.375 120.664-47.62h469.425l-74.445-74.445c-3.136-3.132-5.628-6.848-7.326-10.944s-2.573-8.486-2.573-12.919c0-4.433 0.875-8.823 2.573-12.919s4.19-7.812 7.326-10.944c6.379-6.417 15.040-10.039 24.085-10.074 4.412 0.026 8.777 0.93 12.834 2.662 4.062 1.728 7.735 4.245 10.812 7.411l131.371 131.366c3.136 3.132 5.628 6.852 7.326 10.948s2.573 8.482 2.573 12.919c0 4.433-0.875 8.819-2.573 12.915s-4.19 7.817-7.326 10.948l-131.806 132.681z" />
<glyph unicode="&#xe950;" glyph-name="arrows-circle" d="M190.743 495.719c-1.488-7.019-5.289-13.338-10.796-17.937-5.506-4.604-12.398-7.219-19.57-7.437h-7.072c-4.131 0.887-8.047 2.581-11.52 4.988-3.473 2.411-6.436 5.478-8.717 9.037s-3.836 7.531-4.575 11.691c-0.739 4.16-0.647 8.427 0.271 12.553 15.519 69.161 49.488 132.825 98.296 184.224s110.631 88.613 178.898 107.685c68.265 19.072 140.428 19.29 208.805 0.631 68.382-18.659 130.428-55.499 179.546-106.602v114.391c-0.055 4.207 0.721 8.382 2.278 12.289 1.562 3.907 3.874 7.469 6.81 10.481s6.434 5.418 10.3 7.078c3.866 1.66 8.021 2.543 12.228 2.597 8.602 0 16.858-3.418 22.942-9.503s9.502-14.337 9.502-22.942v-193.424c-0.111-8.532-3.575-16.679-9.647-22.673-6.076-5.995-14.263-9.356-22.797-9.356h-196.753c-4.54-0.517-9.139-0.068-13.495 1.316s-8.371 3.674-11.78 6.717c-3.409 3.043-6.135 6.773-8.004 10.944s-2.833 8.69-2.833 13.26c0 4.57 0.964 9.089 2.833 13.26s4.595 7.901 8.004 10.944c3.409 3.043 7.424 5.332 11.78 6.717s8.956 1.833 13.495 1.316h120.213c-40.747 43.377-92.531 74.841-149.803 91.019-57.276 16.177-117.871 16.457-175.288 0.809-57.419-15.648-109.494-46.633-150.639-89.632s-69.807-96.387-82.912-154.439zM870.016 382.575c-4.13 0.909-8.397 0.981-12.557 0.213-4.156-0.772-8.115-2.368-11.644-4.693-3.529-2.33-6.558-5.338-8.9-8.858-2.347-3.516-3.964-7.467-4.753-11.622-12.143-59.29-40.465-114.057-81.826-158.242-41.361-44.181-94.148-76.049-152.512-92.070-58.359-16.021-120.017-15.573-178.141 1.297-58.123 16.866-110.44 49.502-151.155 94.276h124.79c8.605 0 16.858 3.422 22.942 9.506s9.503 14.336 9.503 22.942c0 4.241-0.842 8.439-2.477 12.352-1.635 3.917-4.032 7.462-7.051 10.445-3.018 2.978-6.598 5.329-10.533 6.916-3.934 1.583-8.144 2.372-12.385 2.317h-180.529c-4.241 0.055-8.451-0.734-12.385-2.317-3.934-1.587-7.514-3.938-10.533-6.916-3.018-2.982-5.415-6.528-7.051-10.445-1.635-3.913-2.478-8.111-2.477-12.352v-187.187c-0.517-4.54-0.068-9.139 1.316-13.495 1.385-4.352 3.673-8.367 6.717-11.776s6.773-6.14 10.944-8.009c4.171-1.865 8.69-2.833 13.26-2.833s9.089 0.969 13.26 2.833c4.171 1.869 7.901 4.599 10.944 8.009s5.332 7.424 6.717 11.776c1.385 4.356 1.833 8.956 1.316 13.495v87.356c50.928-47.228 113.492-80.064 181.286-95.159 67.796-15.091 138.38-11.891 204.534 9.271 66.15 21.158 125.487 59.524 171.934 111.164 46.451 51.635 78.336 114.692 92.399 182.707 1.101 4.211 1.323 8.61 0.644 12.911s-2.24 8.418-4.582 12.092c-2.342 3.669-5.419 6.818-9.037 9.242-3.618 2.428-7.697 4.079-11.981 4.855z" />
</font>
</defs>
</svg>
